<?xml version="1.0" standalone="no"?>
<!DOCTYPE svg PUBLIC "-//W3C//DTD SVG 1.1//EN" "http://www.w3.org/Graphics/SVG/1.1/DTD/svg11.dtd" >
<svg xmlns="http://www.w3.org/2000/svg" xmlns:xlink="http://www.w3.org/1999/xlink" version="1.1">
<metadata>
Created by FontForge 20161013 at Tue Aug 14 21:28:48 2007
 By ,,,
Copyright (C) 2000, 2007 Hoefler &#38; Frere-Jones. http://www.typography.com
</metadata>
<defs>
<font id="Gotham-BlackItalic" horiz-adv-x="500" >
  <font-face 
    font-family="Gotham Black"
    font-weight="425"
    font-style="italic"
    font-stretch="normal"
    units-per-em="1000"
    panose-1="2 0 6 3 4 0 0 2 0 4"
    ascent="800"
    descent="-200"
    x-height="541"
    cap-height="700"
    bbox="-145 -314 1311 1043"
    underline-thickness="20"
    underline-position="-173"
    slope="-12"
    unicode-range="U+0020-FB04"
  />
<missing-glyph 
d="M0 -200v1000h500v-1000h-500zM71 750l179 -390l179 390h-358zM50 -76l172 376l-172 376v-752zM450 676l-172 -376l172 -376v752zM250 240l-179 -390h358z" />
    <glyph glyph-name="f_f" unicode="ff" horiz-adv-x="836" 
d="M13 0l105 388h-64l41 153h63l3 11q25 98 81.5 141.5t150.5 43.5q67 0 121 -18l-35 -133q-34 12 -64 12q-55 0 -68 -51l-3 -9h122l-40 -150h-118l-105 -388h-190zM431 0l105 388h-64l41 153h63l3 11q25 98 81.5 141.5t150.5 43.5q67 0 121 -18l-35 -133q-34 12 -64 12
q-55 0 -68 -51l-3 -9h122l-40 -150h-118l-105 -388h-190z" />
    <glyph glyph-name="fi" unicode="fi" horiz-adv-x="719" 
d="M13 0l105 388h-64l41 153h63l3 11q25 98 81.5 141.5t150.5 43.5q67 0 121 -18l-35 -133q-34 12 -64 12q-55 0 -68 -51l-3 -9h122l-40 -150h-118l-105 -388h-190zM556 590l38 140h198l-38 -140h-198zM401 0l145 541h190l-145 -541h-190z" />
    <glyph glyph-name="fl" unicode="fl" horiz-adv-x="719" 
d="M13 0l105 388h-64l41 153h63l3 11q25 98 81.5 141.5t150.5 43.5q67 0 121 -18l-35 -133q-34 12 -64 12q-55 0 -68 -51l-3 -9h122l-40 -150h-118l-105 -388h-190zM401 0l196 730h190l-196 -730h-190z" />
    <glyph glyph-name="f_f_i" unicode="ffi" horiz-adv-x="1137" 
d="M13 0l105 388h-64l41 153h63l3 11q25 98 81.5 141.5t150.5 43.5q67 0 121 -18l-35 -133q-34 12 -64 12q-55 0 -68 -51l-3 -9h122l-40 -150h-118l-105 -388h-190zM431 0l105 388h-64l41 153h63l3 11q25 98 81.5 141.5t150.5 43.5q67 0 121 -18l-35 -133q-34 12 -64 12
q-55 0 -68 -51l-3 -9h122l-40 -150h-118l-105 -388h-190zM974 590l38 140h198l-38 -140h-198zM819 0l145 541h190l-145 -541h-190z" />
    <glyph glyph-name="f_f_l" unicode="ffl" horiz-adv-x="1137" 
d="M13 0l105 388h-64l41 153h63l3 11q25 98 81.5 141.5t150.5 43.5q67 0 121 -18l-35 -133q-34 12 -64 12q-55 0 -68 -51l-3 -9h122l-40 -150h-118l-105 -388h-190zM431 0l105 388h-64l41 153h63l3 11q25 98 81.5 141.5t150.5 43.5q67 0 121 -18l-35 -133q-34 12 -64 12
q-55 0 -68 -51l-3 -9h122l-40 -150h-118l-105 -388h-190zM819 0l196 730h190l-196 -730h-190z" />
    <glyph glyph-name=".notdef" 
d="M0 -200v1000h500v-1000h-500zM71 750l179 -390l179 390h-358zM50 -76l172 376l-172 376v-752zM450 676l-172 -376l172 -376v752zM250 240l-179 -390h358z" />
    <glyph glyph-name=".null" horiz-adv-x="0" 
 />
    <glyph glyph-name="nonmarkingreturn" horiz-adv-x="333" 
 />
    <glyph glyph-name="space" unicode=" " horiz-adv-x="277" 
 />
    <glyph glyph-name="exclam" unicode="!" horiz-adv-x="322" 
d="M100 228l45 387l23 85h217l-24 -85l-162 -387h-99zM-10 0l45 170h198l-46 -170h-197z" />
    <glyph glyph-name="quotedbl" unicode="&#x22;" horiz-adv-x="540" 
d="M326 341l96 359h204l-1 -5l-198 -354h-101zM67 341l95 359h204l-1 -5l-198 -354h-100z" />
    <glyph glyph-name="numbersign" unicode="#" horiz-adv-x="697" 
d="M38 0l47 135h-82l36 161h103l39 112h-94l36 161h115l46 131h145l-46 -131h126l46 131h145l-46 -131h82l-36 -161h-102l-40 -112h95l-36 -161h-115l-48 -135h-145l48 135h-127l-47 -135h-145zM281 292h135l42 120h-135z" />
    <glyph glyph-name="dollar" unicode="$" horiz-adv-x="656" 
d="M177 -98l31 107q-142 26 -227 113l116 121q78 -65 160 -82l37 122q-97 30 -144.5 72.5t-47.5 117.5q0 97 83.5 162t218.5 65h9l17 58h104l-20 -69q105 -24 178 -88l-107 -130q-52 43 -119 64l-35 -115q94 -31 140.5 -73.5t46.5 -116.5q0 -102 -84.5 -166t-219.5 -64h-5
l-28 -98h-104zM345 446l30 103q-41 0 -62 -15.5t-21 -39.5q0 -17 11.5 -27.5t41.5 -20.5zM348 152q81 3 81 57q0 16 -10.5 27t-38.5 22z" />
    <glyph glyph-name="percent" unicode="%" horiz-adv-x="923" 
d="M247 330q-78 0 -123 45.5t-45 117.5q0 85 57.5 151t145.5 66q78 0 122.5 -45.5t44.5 -117.5q0 -85 -57.5 -151t-144.5 -66zM68 0l689 700h141l-690 -700h-140zM683 -10q-78 0 -122.5 45.5t-44.5 117.5q0 85 57.5 151t145.5 66q78 0 122.5 -45.5t44.5 -117.5
q0 -85 -57.5 -151t-145.5 -66zM252 435q35 0 58 33t23 74q0 28 -15 45.5t-41 17.5q-35 0 -58 -33t-23 -74q0 -28 15 -45.5t41 -17.5zM688 95q36 0 59 33t23 74q0 28 -15.5 45.5t-40.5 17.5q-36 0 -59 -33t-23 -74q0 -28 15.5 -45.5t40.5 -17.5z" />
    <glyph glyph-name="ampersand" unicode="&#x26;" horiz-adv-x="700" 
d="M517 -14l-49 69q-104 -66 -214 -66q-112 0 -176.5 52t-64.5 141q0 78 53 134.5t148 87.5q-32 62 -32 116q0 82 61.5 137.5t160.5 55.5q92 0 150 -50t58 -127q0 -130 -173 -192l61 -83q36 39 72 92l113 -79q-43 -66 -98 -124l57 -77zM363 442q51 19 72.5 39t21.5 48
q0 22 -14.5 37t-37.5 15q-29 0 -47 -20t-18 -48q0 -34 23 -71zM278 133q48 0 103 33l-95 135q-90 -37 -90 -104q0 -28 22 -46t60 -18z" />
    <glyph glyph-name="quotesingle" unicode="'" horiz-adv-x="282" 
d="M67 341l95 359h207l-1 -5l-198 -354h-103z" />
    <glyph glyph-name="parenleft" unicode="(" horiz-adv-x="455" 
d="M242 -143q-197 150 -197 360q0 174 112.5 304t299.5 192l56 -129q-139 -61 -211.5 -158.5t-72.5 -203.5q0 -125 121 -255z" />
    <glyph glyph-name="parenright" unicode=")" horiz-adv-x="455" 
d="M7 -140l-57 129q140 61 212 158.5t72 203.5q0 125 -121 255l109 110q196 -150 196 -360q0 -173 -112.5 -303.5t-298.5 -192.5z" />
    <glyph glyph-name="asterisk" unicode="*" horiz-adv-x="436" 
d="M285 329l-102 27l58 121l-122 -58l-28 103l135 10l-112 77l77 76l76 -112l10 134l102 -27l-58 -122l122 59l28 -104l-135 -10l112 -77l-77 -75l-76 112z" />
    <glyph glyph-name="plus" unicode="+" horiz-adv-x="640" 
d="M186 94l47 174h-176l45 168h176l46 174h174l-46 -174h176l-45 -168h-176l-47 -174h-174z" />
    <glyph glyph-name="comma" unicode="," horiz-adv-x="302" 
d="M-66 -165l-8 73q113 11 131 94h-77l53 195h197l-45 -168q-26 -98 -83.5 -144t-167.5 -50z" />
    <glyph glyph-name="hyphen" unicode="-" horiz-adv-x="417" 
d="M33 229l45 167h328l-44 -167h-329z" />
    <glyph glyph-name="period" unicode="." horiz-adv-x="302" 
d="M-20 0l52 195h198l-53 -195h-197z" />
    <glyph glyph-name="slash" unicode="/" horiz-adv-x="535" 
d="M-145 -128l682 926h166l-682 -926h-166z" />
    <glyph glyph-name="zero" unicode="0" horiz-adv-x="726" 
d="M330 -14q-128 0 -204 80t-76 204q0 112 47 213t137 166t203 65q129 0 205 -80t76 -204q0 -113 -47 -213.5t-137.5 -165.5t-203.5 -65zM347 157q75 0 124.5 84t49.5 178q0 60 -27.5 91.5t-73.5 31.5q-75 0 -124 -84t-49 -178q0 -60 27 -91.5t73 -31.5z" />
    <glyph glyph-name="one" unicode="1" horiz-adv-x="430" 
d="M84 0l138 517l-117 -28l-4 157l222 59h141l-189 -705h-191z" />
    <glyph glyph-name="two" unicode="2" horiz-adv-x="627" 
d="M-33 0l41 150l356 232q81 54 81 104q0 27 -17.5 42t-50.5 15q-70 0 -159 -87l-113 119q124 136 290 136q113 0 179.5 -55.5t66.5 -144.5q0 -68 -40.5 -124.5t-143.5 -119.5l-171 -109h279l-43 -158h-555z" />
    <glyph glyph-name="three" unicode="3" horiz-adv-x="611" 
d="M256 -14q-189 0 -280 135l132 109q59 -78 148 -78q51 0 84 25t33 58q0 64 -109 64h-67l-4 100l196 144h-262l42 157h506l-38 -139l-214 -149q142 -39 142 -170q0 -114 -86 -185t-223 -71z" />
    <glyph glyph-name="four" unicode="4" horiz-adv-x="679" 
d="M313 0l36 136h-321l-21 142l476 427h205l-113 -424h89l-40 -145h-88l-37 -136h-186zM223 280h165l53 199z" />
    <glyph glyph-name="five" unicode="5" horiz-adv-x="612" 
d="M261 -13q-84 0 -162.5 36t-120.5 88l122 114q76 -74 167 -74q54 0 88 27.5t34 67.5q0 33 -26.5 54t-77.5 21t-99 -29l-99 69l111 339h462l-43 -160h-306l-32 -97q41 14 89 14q97 0 156.5 -52.5t59.5 -141.5q0 -118 -89.5 -197t-233.5 -79z" />
    <glyph glyph-name="six" unicode="6" horiz-adv-x="654" 
d="M317 -13q-126 0 -196 70q-72 72 -72 193q0 98 35.5 191.5t101.5 159.5q112 112 275 112q137 0 226 -76l-97 -137q-61 54 -137 54q-81 0 -136 -55q-39 -39 -59 -96q64 55 160 55q85 0 143 -51t58 -139q0 -116 -88.5 -198.5t-213.5 -82.5zM317 134q48 0 79.5 33.5
t31.5 77.5q0 35 -23.5 56.5t-60.5 21.5q-50 0 -82 -32.5t-32 -77.5q0 -34 22 -54q25 -25 65 -25z" />
    <glyph glyph-name="seven" unicode="7" horiz-adv-x="614" 
d="M-4 0l422 537h-316l44 163h540l-40 -146l-428 -554h-222z" />
    <glyph glyph-name="eight" unicode="8" horiz-adv-x="664" 
d="M305 -10q-118 0 -199.5 54t-81.5 142q0 72 45 120t126 70q-76 45 -76 132q0 80 75 141t204 61q115 0 187 -54.5t72 -136.5q0 -63 -39.5 -107.5t-110.5 -65.5q103 -43 103 -144q0 -90 -84.5 -151t-220.5 -61zM380 417q40 0 68.5 22.5t28.5 56.5q1 32 -24.5 51.5
t-65.5 19.5t-68.5 -22.5t-28.5 -56.5q-1 -32 25 -51.5t65 -19.5zM316 133q45 0 76.5 23t31.5 60q1 34 -28 54.5t-72 20.5q-46 0 -77 -23t-31 -59q-1 -34 28 -55t72 -21z" />
    <glyph glyph-name="nine" unicode="9" horiz-adv-x="654" 
d="M238 -13q-138 0 -233 81l97 136q70 -58 141 -58q80 0 137 57q38 37 57 91q-63 -54 -159 -54q-86 0 -143.5 50.5t-57.5 139.5q0 119 88 201.5t214 82.5t196 -70q73 -73 73 -200q0 -94 -36 -186t-103 -159q-112 -112 -271 -112zM354 374q48 0 80 33.5t32 79.5q0 32 -21 55
q-24 24 -65 24q-49 0 -80.5 -33.5t-31.5 -79.5q0 -36 24 -57.5t62 -21.5z" />
    <glyph glyph-name="colon" unicode=":" horiz-adv-x="307" 
d="M75 346l52 195h198l-53 -195h-197zM-18 0l53 195h197l-52 -195h-198z" />
    <glyph glyph-name="semicolon" unicode=";" horiz-adv-x="307" 
d="M75 346l52 195h198l-53 -195h-197zM-64 -167l-8 73q113 11 131 94h-77l53 195h197l-45 -168q-26 -98 -83.5 -144t-167.5 -50z" />
    <glyph glyph-name="less" unicode="&#x3c;" horiz-adv-x="640" 
d="M505 66l-444 198l48 176l550 198l-51 -185l-356 -109l298 -110z" />
    <glyph glyph-name="equal" unicode="=" horiz-adv-x="640" 
d="M104 403l45 165h504l-45 -165h-504zM33 137l44 164h504l-44 -164h-504z" />
    <glyph glyph-name="greater" unicode="&#x3e;" horiz-adv-x="640" 
d="M24 66l50 184l356 110l-298 109l45 169l444 -198l-47 -176z" />
    <glyph glyph-name="question" unicode="?" horiz-adv-x="540" 
d="M168 228l18 168l9 8q182 15 182 87q0 50 -67 50q-65 0 -135 -54l-78 135q102 88 247 88q102 0 164 -52t62 -130q0 -88 -62.5 -147t-188.5 -79l-30 -74h-121zM67 0l46 170h197l-46 -170h-197z" />
    <glyph glyph-name="at" unicode="@" horiz-adv-x="965" 
d="M462 -154q-185 0 -300 107.5t-115 280.5q0 128 64 238.5t177 176.5t249 66q184 0 293 -98.5t109 -244.5q0 -154 -72 -234.5t-171 -80.5q-53 0 -93 22.5t-59 59.5q-72 -80 -159 -80q-67 0 -111 46.5t-44 125.5q0 121 73 204.5t171 83.5q86 0 129 -72l21 67l147 -40
l-80 -254q-15 -47 0.5 -73.5t57.5 -26.5q54 0 101.5 69.5t47.5 185.5q0 127 -98 213.5t-263 86.5q-189 0 -319 -130.5t-130 -310.5q0 -156 104 -252.5t271 -96.5q103 0 205 45l16 -37q-104 -47 -222 -47zM460 191q43 0 76 37.5t33 89.5q0 31 -19.5 50t-50.5 19
q-44 0 -76 -37t-32 -89q0 -32 18.5 -51t50.5 -19z" />
    <glyph glyph-name="A" unicode="A" horiz-adv-x="775" 
d="M-74 0l487 705h190l109 -705h-204l-17 125h-270l-84 -125h-211zM319 276h156l-25 201z" />
    <glyph glyph-name="B" unicode="B" horiz-adv-x="714" 
d="M-12 0l188 700h291q134 0 193.5 -47t59.5 -121q0 -67 -41.5 -114t-115.5 -65q106 -38 106 -140q0 -95 -81 -154t-237 -59h-363zM291 421h131q51 0 78.5 19t27.5 52q0 52 -84 52h-121zM219 156h147q50 0 79 20.5t29 53.5q0 55 -86 55h-134z" />
    <glyph glyph-name="C" unicode="C" horiz-adv-x="727" 
d="M382 -14q-147 0 -239 83.5t-92 222.5q0 105 52 200.5t154 158.5t231 63q105 0 178.5 -47t105.5 -130l-168 -90q-44 90 -141 90q-86 0 -147.5 -69t-61.5 -162q0 -66 39 -105t101 -39q79 0 150 71l131 -116q-116 -131 -293 -131z" />
    <glyph glyph-name="D" unicode="D" horiz-adv-x="761" 
d="M-12 0l188 700h226q184 0 274 -90q76 -76 76 -205q0 -161 -115 -276q-129 -129 -367 -129h-282zM229 172h64q129 0 200 71q60 60 60 146q0 61 -35 96q-41 43 -137 43h-56z" />
    <glyph glyph-name="E" unicode="E" horiz-adv-x="669" 
d="M-12 0l188 700h561l-45 -165h-368l-29 -106h334l-41 -153h-334l-30 -111h374l-44 -165h-566z" />
    <glyph glyph-name="F" unicode="F" horiz-adv-x="652" 
d="M-12 0l188 700h560l-46 -170h-365l-32 -119h330l-43 -161h-330l-67 -250h-195z" />
    <glyph glyph-name="G" unicode="G" horiz-adv-x="762" 
d="M387 -14q-65 0 -123.5 18.5t-107 55t-77.5 97t-29 138.5q0 172 127 295.5t322 123.5q99 0 175 -34t115 -85l-130 -126q-72 72 -173 72q-104 0 -171 -69.5t-67 -168.5q0 -71 44.5 -110t112.5 -39q52 0 93 19l28 94h-135l37 142h321l-100 -353q-121 -70 -262 -70z" />
    <glyph glyph-name="H" unicode="H" horiz-adv-x="757" 
d="M-12 0l188 700h195l-71 -262h247l70 262h195l-188 -700h-195l72 266h-247l-71 -266h-195z" />
    <glyph glyph-name="I" unicode="I" horiz-adv-x="325" 
d="M-7 0l188 700h194l-188 -700h-194z" />
    <glyph glyph-name="J" unicode="J" horiz-adv-x="568" 
d="M197 -12q-74 0 -137.5 32t-100.5 91l132 115q50 -68 112 -68q43 0 75 32q28 28 53 119l105 391h193l-114 -428q-38 -142 -104 -208q-78 -76 -214 -76z" />
    <glyph glyph-name="K" unicode="K" horiz-adv-x="722" 
d="M-12 0l188 700h195l-76 -280l289 280h247l-330 -307l156 -393h-210l-101 270l-121 -111l-42 -159h-195z" />
    <glyph glyph-name="L" unicode="L" horiz-adv-x="617" 
d="M-12 0l188 700h195l-142 -530h334l-46 -170h-529z" />
    <glyph glyph-name="M" unicode="M" horiz-adv-x="866" 
d="M-12 0l188 700h196l93 -271l238 271h218l-188 -700h-195l107 402l-251 -274h-4l-103 272l-107 -400h-192z" />
    <glyph glyph-name="N" unicode="N" horiz-adv-x="781" 
d="M-12 0l188 700h181l181 -389l105 389h193l-188 -700h-170l-189 403l-108 -403h-193z" />
    <glyph glyph-name="O" unicode="O" horiz-adv-x="813" 
d="M386 -13q-148 0 -241 89.5t-93 224.5q0 79 31.5 154t85.5 132t132.5 91.5t167.5 34.5q148 0 241 -89.5t93 -224.5q0 -79 -31.5 -154t-85.5 -132t-132.5 -91.5t-167.5 -34.5zM403 161q88 0 145 69.5t57 153.5q0 69 -40.5 112t-112.5 43q-87 0 -144.5 -70t-57.5 -153
q0 -69 40.5 -112t112.5 -43z" />
    <glyph glyph-name="P" unicode="P" horiz-adv-x="672" 
d="M-12 0l188 700h229q166 0 240 -74q55 -55 55 -143q0 -129 -95.5 -205.5t-252.5 -76.5h-115l-54 -201h-195zM277 352h73q71 0 111 29.5t40 79.5q0 29 -20 49q-27 27 -83 27h-72z" />
    <glyph glyph-name="Q" unicode="Q" horiz-adv-x="813" 
d="M603 -45l-45 69q-80 -37 -172 -37q-148 0 -241 89.5t-93 224.5q0 79 31.5 154t85.5 132t132.5 91.5t167.5 34.5q148 0 241 -89.5t93 -224.5q0 -160 -115 -281l53 -72zM402 157q23 0 50 9l-77 104l139 92l60 -94q31 54 31 114q0 70 -40.5 113.5t-112.5 43.5
q-88 0 -145.5 -70t-57.5 -155q0 -70 40.5 -113.5t112.5 -43.5z" />
    <glyph glyph-name="R" unicode="R" horiz-adv-x="720" 
d="M-12 0l188 700h264q168 0 241 -73q54 -54 54 -143q0 -90 -52.5 -154.5t-157.5 -93.5l108 -236h-214l-93 212h-86l-57 -212h-195zM280 364h111q66 0 105 26t39 71q0 27 -18 47q-24 24 -86 24h-105z" />
    <glyph glyph-name="S" unicode="S" horiz-adv-x="645" 
d="M302 -12q-206 0 -325 128l125 129q103 -95 216 -95q35 0 57 14t22 38q0 21 -22 36t-95 43q-92 35 -137 78t-45 115q0 104 84 171t213 67q178 0 287 -104l-120 -134q-89 77 -185 77q-34 0 -55 -14t-21 -36q0 -20 21 -33t96 -43q90 -34 136 -78t46 -117q0 -108 -83.5 -175
t-214.5 -67z" />
    <glyph glyph-name="T" unicode="T" horiz-adv-x="645" 
d="M151 0l143 530h-210l46 170h613l-45 -170h-210l-142 -530h-195z" />
    <glyph glyph-name="U" unicode="U" horiz-adv-x="760" 
d="M342 -13q-135 0 -209 64.5t-74 180.5q0 51 16 112l96 356h196l-99 -370q-10 -37 -10 -66q0 -48 28.5 -75t80.5 -27q57 0 94 37q38 36 59 116l104 385h196l-111 -414q-37 -137 -109 -209q-90 -90 -258 -90z" />
    <glyph glyph-name="V" unicode="V" horiz-adv-x="739" 
d="M202 -5l-93 705h212l39 -440l275 440h219l-471 -705h-181z" />
    <glyph glyph-name="W" unicode="W" horiz-adv-x="1102" 
d="M162 -5l-45 705h201l13 -405l242 407h168l27 -407l230 405h211l-423 -705h-174l-32 398l-245 -398h-173z" />
    <glyph glyph-name="X" unicode="X" horiz-adv-x="713" 
d="M-75 0l341 366l-145 334h213l77 -197l173 197h234l-324 -348l154 -352h-214l-84 216l-190 -216h-235z" />
    <glyph glyph-name="Y" unicode="Y" horiz-adv-x="677" 
d="M159 0l73 271l-141 429h209l69 -262l211 262h232l-391 -450l-67 -250h-195z" />
    <glyph glyph-name="Z" unicode="Z" horiz-adv-x="681" 
d="M-36 0l37 141l446 395h-328l45 164h595l-38 -141l-446 -395h341l-44 -164h-608z" />
    <glyph glyph-name="bracketleft" unicode="[" horiz-adv-x="468" 
d="M-26 -130l223 830h346l-35 -129h-176l-154 -572h176l-34 -129h-346z" />
    <glyph glyph-name="backslash" unicode="\" horiz-adv-x="535" 
d="M316 -128l-207 926h153l207 -926h-153z" />
    <glyph glyph-name="bracketright" unicode="]" horiz-adv-x="468" 
d="M-67 -130l35 129h176l153 572h-176l35 129h346l-223 -830h-346z" />
    <glyph glyph-name="asciicircum" unicode="^" 
d="M89 493l199 206h128l89 -206h-123l-50 97l-102 -97h-141z" />
    <glyph glyph-name="underscore" unicode="_" horiz-adv-x="600" 
d="M-117 -160l31 116h604l-31 -116h-604z" />
    <glyph glyph-name="grave" unicode="`" 
d="M334 588l-112 127l179 57l55 -184h-122z" />
    <glyph glyph-name="a" unicode="a" horiz-adv-x="597" 
d="M152 -11q-67 0 -109 40t-42 107q0 88 65 139.5t173 51.5q68 0 137 -21l2 7q5 22 5 33q0 58 -93 58q-78 0 -146 -27l-27 138q94 33 213 33q120 0 180.5 -45t60.5 -127q0 -36 -11 -78l-80 -298h-187l15 58q-74 -69 -156 -69zM240 106q36 0 68 28t43 70l5 18q-36 12 -71 12
q-45 0 -72 -21t-27 -57q0 -23 15 -36.5t39 -13.5z" />
    <glyph glyph-name="b" unicode="b" horiz-adv-x="672" 
d="M353 -12q-108 0 -164 86l-20 -74h-190l195 730h190l-66 -246q71 69 154 69t137.5 -60t54.5 -162q0 -144 -86.5 -243.5t-204.5 -99.5zM320 146q54 0 93 45.5t39 109.5q0 43 -25.5 69t-66.5 26q-54 0 -94 -46t-40 -108q0 -43 26 -69.5t68 -26.5z" />
    <glyph glyph-name="c" unicode="c" horiz-adv-x="563" 
d="M281 -13q-111 0 -182 64.5t-71 172.5q0 136 95 232t230 96q90 0 148.5 -41t81.5 -107l-149 -77q-29 68 -93 68q-53 0 -91.5 -49t-38.5 -112q0 -41 23.5 -65.5t59.5 -24.5q52 0 102 50l116 -101q-91 -106 -231 -106z" />
    <glyph glyph-name="d" unicode="d" horiz-adv-x="672" 
d="M220 -12q-83 0 -137.5 60t-54.5 162q0 144 86.5 243.5t204.5 99.5q108 0 164 -86l70 263h190l-195 -730h-190l16 57q-72 -69 -154 -69zM312 145q54 0 94 46t40 108q0 43 -26 69.5t-68 26.5q-54 0 -93 -45.5t-39 -109.5q0 -43 25.5 -69t66.5 -26z" />
    <glyph glyph-name="e" unicode="e" horiz-adv-x="601" 
d="M203 218q7 -89 101 -89q56 0 115 43l88 -104q-93 -81 -221 -81q-119 0 -188.5 65t-69.5 175q0 127 91 226.5t234 99.5q113 0 171.5 -64.5t58.5 -159.5q0 -54 -21 -111h-359zM216 315h193q5 15 5 29q0 30 -19 49.5t-55 19.5q-40 0 -73.5 -25.5t-50.5 -72.5z" />
    <glyph glyph-name="f" unicode="f" horiz-adv-x="418" 
d="M13 0l105 388h-64l41 153h63l3 11q25 98 81.5 141.5t150.5 43.5q67 0 121 -18l-35 -133q-34 12 -64 12q-55 0 -68 -51l-3 -9h122l-40 -150h-118l-105 -388h-190z" />
    <glyph glyph-name="g" unicode="g" horiz-adv-x="668" 
d="M238 -162q-77 0 -154.5 20.5t-130.5 53.5l85 119q92 -56 192 -56q72 0 112 40q28 29 45 87l3 12q-74 -66 -164 -66q-78 0 -135.5 50.5t-57.5 136.5q0 128 82.5 222.5t201.5 94.5q109 0 164 -88l20 77h190l-115 -430q-35 -132 -96 -194q-80 -79 -242 -79zM310 185
q54 0 91 39.5t37 91.5q0 38 -24.5 62t-65.5 24q-53 0 -89.5 -40.5t-36.5 -93.5q0 -38 24 -60.5t64 -22.5z" />
    <glyph glyph-name="h" unicode="h" horiz-adv-x="632" 
d="M-21 0l195 730h190l-67 -251q70 74 155 74q73 0 115 -43.5t42 -118.5q0 -37 -16 -97l-78 -294h-190l76 283q6 21 6 44q0 57 -60 57q-74 0 -101 -98l-77 -286h-190z" />
    <glyph glyph-name="i" unicode="i" horiz-adv-x="301" 
d="M138 590l38 140h198l-38 -140h-198zM-17 0l145 541h190l-145 -541h-190z" />
    <glyph glyph-name="j" unicode="j" horiz-adv-x="303" 
d="M139 590l38 140h198l-38 -140h-198zM-53 -163q-43 0 -81 7l33 126q12 -3 24 -3q29 0 46 17.5t28 60.5l133 496h190l-140 -520q-28 -103 -83 -143.5t-150 -40.5z" />
    <glyph glyph-name="k" unicode="k" horiz-adv-x="599" 
d="M-21 0l196 730h190l-96 -357l181 168h229l-249 -222l106 -319h-203l-58 192l-71 -63l-35 -129h-190z" />
    <glyph glyph-name="l" unicode="l" horiz-adv-x="301" 
d="M-17 0l196 730h190l-196 -730h-190z" />
    <glyph glyph-name="m" unicode="m" horiz-adv-x="968" 
d="M-21 0l145 541h190l-16 -60q70 72 151 72q107 0 141 -94q83 94 196 94q76 0 118 -43t42 -118q0 -38 -16 -98l-79 -294h-189l75 283q7 25 7 44q0 57 -58 57q-72 0 -99 -98l-77 -286h-190l76 283q7 24 7 44q0 57 -58 57q-72 0 -99 -98l-77 -286h-190z" />
    <glyph glyph-name="n" unicode="n" horiz-adv-x="630" 
d="M-21 0l145 541h190l-17 -62q70 74 155 74q73 0 115 -43.5t42 -118.5q0 -37 -16 -97l-78 -294h-190l76 283q6 21 6 44q0 57 -60 57q-74 0 -101 -98l-77 -286h-190z" />
    <glyph glyph-name="o" unicode="o" horiz-adv-x="644" 
d="M295 -13q-121 0 -193 71t-72 181q0 125 92.5 219.5t225.5 94.5q122 0 194 -71t72 -180q0 -126 -92.5 -220.5t-226.5 -94.5zM306 145q54 0 90 46.5t36 103.5q0 45 -26 72.5t-68 27.5q-54 0 -90 -46.5t-36 -102.5q0 -46 26 -73.5t68 -27.5z" />
    <glyph glyph-name="p" unicode="p" horiz-adv-x="672" 
d="M-64 -160l188 701h190l-16 -57q71 69 154 69t137.5 -60t54.5 -162q0 -144 -86.5 -243.5t-204.5 -99.5q-108 0 -164 86l-63 -234h-190zM320 146q54 0 93 45.5t39 109.5q0 43 -25.5 69t-66.5 26q-54 0 -94 -46t-40 -108q0 -43 26 -69.5t68 -26.5z" />
    <glyph glyph-name="q" unicode="q" horiz-adv-x="672" 
d="M315 -160l59 217q-72 -69 -154 -69q-83 0 -137.5 60t-54.5 162q0 144 86.5 243.5t204.5 99.5q108 0 164 -86l20 74h190l-188 -701h-190zM312 145q54 0 94 46t40 108q0 43 -26 69.5t-68 26.5q-54 0 -93 -45.5t-39 -109.5q0 -43 25.5 -69t66.5 -26z" />
    <glyph glyph-name="r" unicode="r" horiz-adv-x="430" 
d="M-21 0l145 541h190l-29 -109q85 126 203 118l-54 -200h-16q-156 0 -205 -187l-44 -163h-190z" />
    <glyph glyph-name="s" unicode="s" horiz-adv-x="511" 
d="M230 -13q-77 0 -147.5 25t-119.5 69l94 111q38 -34 87.5 -53.5t92.5 -19.5q48 0 48 33q0 14 -16 24t-58 27q-75 30 -113.5 64.5t-38.5 93.5q0 83 63.5 137.5t172.5 54.5q69 0 131.5 -22t102.5 -54l-91 -114q-78 58 -153 58q-47 0 -47 -31q0 -13 16 -23.5t59 -27.5
q73 -29 112 -63t39 -95q0 -83 -61 -138.5t-173 -55.5z" />
    <glyph glyph-name="t" unicode="t" horiz-adv-x="430" 
d="M214 -11q-81 0 -122.5 33.5t-41.5 94.5q0 28 10 71l54 200h-64l41 153h64l37 137h190l-37 -137h126l-41 -153h-126l-46 -170q-5 -22 -5 -33q0 -34 43 -34q30 0 72 15l-42 -158q-54 -19 -112 -19z" />
    <glyph glyph-name="u" unicode="u" horiz-adv-x="632" 
d="M183 -12q-73 0 -115 43.5t-42 118.5q0 40 15 97l79 294h190l-76 -283q-7 -24 -7 -44q0 -57 61 -57q75 0 100 98l77 286h190l-144 -541h-190l16 62q-70 -74 -154 -74z" />
    <glyph glyph-name="v" unicode="v" horiz-adv-x="621" 
d="M151 -4l-70 545h195l20 -315l187 315h202l-361 -545h-173z" />
    <glyph glyph-name="w" unicode="w" horiz-adv-x="859" 
d="M103 -4l-19 545h183l-2 -272l157 274h156l11 -276l146 274h185l-313 -545h-162l-13 281l-165 -281h-164z" />
    <glyph glyph-name="x" unicode="x" horiz-adv-x="589" 
d="M-62 0l259 281l-112 260h197l47 -131l109 131h214l-252 -274l114 -267h-197l-49 137l-116 -137h-214z" />
    <glyph glyph-name="y" unicode="y" horiz-adv-x="622" 
d="M94 -163q-84 0 -144 39l85 139q37 -27 75 -27q27 0 47 20l-70 533h193l22 -325l182 325h200l-335 -538q-58 -91 -116.5 -128.5t-138.5 -37.5z" />
    <glyph glyph-name="z" unicode="z" horiz-adv-x="558" 
d="M-40 0l34 125l318 265h-238l40 151h486l-33 -125l-319 -265h249l-40 -151h-497z" />
    <glyph glyph-name="braceleft" unicode="{" horiz-adv-x="497" 
d="M322 -141q-117 13 -165 49.5t-48 96.5q0 32 16 82q16 52 16 76q0 31 -18 46t-70 15h-26l33 126h27q78 0 107 32t42 121q8 54 24.5 91t51 65.5t92 42t142.5 13.5l12 -112q-92 -7 -124 -42t-40 -109q-11 -87 -45.5 -127t-121.5 -50q86 -17 86 -95q0 -27 -14 -71
q-15 -43 -15 -68q0 -31 19 -48.5t72 -30.5z" />
    <glyph glyph-name="bar" unicode="|" horiz-adv-x="356" 
d="M122 -128v926h145v-926h-145z" />
    <glyph glyph-name="braceright" unicode="}" horiz-adv-x="497" 
d="M-40 -141l-12 112q91 7 122.5 41.5t41.5 109.5q11 87 45.5 127t121.5 50q-86 17 -86 95q0 27 14 71q15 43 15 68q0 31 -19 48.5t-72 30.5l53 103q117 -13 165 -49.5t48 -96.5q0 -32 -16 -82q-16 -52 -16 -76q0 -31 18 -46t70 -15h26l-33 -126h-27q-78 0 -107.5 -32
t-41.5 -121q-8 -54 -24.5 -91t-51 -65.5t-92 -42t-142.5 -13.5z" />
    <glyph glyph-name="asciitilde" unicode="~" horiz-adv-x="505" 
d="M129 216l-88 41q28 69 70 106.5t90 37.5q42 0 84 -31q35 -24 52 -24q34 0 66 57l89 -41q-29 -69 -71 -106.5t-90 -37.5q-42 0 -84 31q-34 24 -52 24q-34 0 -66 -57z" />
    <glyph glyph-name="uni00A0" unicode="&#xa0;" horiz-adv-x="277" 
 />
    <glyph glyph-name="exclamdown" unicode="&#xa1;" horiz-adv-x="322" 
d="M132 530l46 170h197l-45 -170h-198zM-20 0l24 85l162 387h99l-45 -387l-23 -85h-217z" />
    <glyph glyph-name="cent" unicode="&#xa2;" horiz-adv-x="585" 
d="M190 101q-65 30 -100.5 86t-35.5 132q0 135 93.5 228t232.5 93h21l26 66h110l-35 -89q86 -39 117 -127l-137 -71q-14 37 -42 56l-98 -254q54 4 103 53l108 -96q-88 -103 -228 -103q-23 0 -35 2l-32 -83h-110zM350 494q-57 -5 -93.5 -55.5t-36.5 -111.5q0 -54 33 -80z" />
    <glyph glyph-name="sterling" unicode="&#xa3;" horiz-adv-x="631" 
d="M-22 0l31 116l82 28l33 121h-75l36 135h75l15 57q30 116 92 178q77 77 206 77q71 0 127.5 -29t87.5 -75l-131 -118q-38 51 -92 51q-37 0 -64 -27q-23 -21 -36 -69l-13 -45h209l-36 -135h-208l-30 -111h285l-41 -154h-553z" />
    <glyph glyph-name="yen" unicode="&#xa5;" horiz-adv-x="718" 
d="M190 0l25 93h-184l32 120h184l13 50h-184l32 120h140l-122 317h205l73 -230l188 230h229l-291 -317h138l-32 -120h-184l-13 -50h183l-32 -120h-184l-25 -93h-191z" />
    <glyph glyph-name="section" unicode="&#xa7;" horiz-adv-x="625" 
d="M280 -12q-79 0 -147.5 25.5t-109.5 68.5l99 105q32 -29 77 -49t85 -20q53 0 53 30q0 14 -19.5 23.5t-78.5 27.5q-85 25 -131 56.5t-46 83.5q0 101 126 130q-33 35 -33 82q0 69 63.5 116t169.5 47q79 0 148 -25.5t109 -68.5l-98 -105q-31 29 -77 48.5t-86 19.5
q-52 0 -52 -29q0 -14 19.5 -24t77.5 -27q86 -26 131.5 -57.5t45.5 -83.5q0 -99 -125 -130q32 -35 32 -81q0 -70 -63 -116.5t-170 -46.5zM404 292q22 0 36.5 10t14.5 26q0 17 -19.5 28.5t-67.5 27.5q-76 26 -103 26q-22 0 -37 -10t-15 -27q0 -16 19.5 -27.5t67.5 -28.5
q74 -25 104 -25z" />
    <glyph glyph-name="dieresis" unicode="&#xa8;" 
d="M362 588l39 142h165l-39 -142h-165zM143 588l39 142h165l-39 -142h-165z" />
    <glyph glyph-name="copyright" unicode="&#xa9;" horiz-adv-x="830" 
d="M437 -14q-151 0 -256 106.5t-105 255.5v2q0 149 106 256.5t257 107.5t256 -106.5t105 -255.5v-2q0 -149 -106 -256.5t-257 -107.5zM437 26q136 0 228.5 95t92.5 229v2q0 134 -92 228t-227 94q-136 0 -228.5 -95t-92.5 -229v-2q0 -134 92 -228t227 -94zM443 156
q-87 0 -144.5 56.5t-57.5 140.5v2q0 83 57.5 141t146.5 58q105 0 162 -79l-81 -64q-35 45 -83 45q-39 0 -65 -29t-26 -71v-2q0 -42 26 -71t65 -29q47 0 86 46l81 -58q-62 -86 -167 -86z" />
    <glyph glyph-name="ordfeminine" unicode="&#xaa;" horiz-adv-x="395" 
d="M182 398q-37 0 -60 22t-23 58q0 49 36 77.5t95 28.5q37 0 75 -13l2 6q3 7 3 16q0 33 -51 33q-42 0 -79 -14l-15 75q51 19 116 19t98.5 -25t33.5 -70q0 -21 -6 -43l-44 -164h-104l9 32q-40 -38 -86 -38zM45 270l21 77h288l-21 -77h-288zM231 462q20 0 37.5 15.5t22.5 37.5
l3 11q-23 7 -40 7q-23 0 -38 -12t-15 -31q0 -12 8.5 -20t21.5 -8z" />
    <glyph glyph-name="guillemotleft" unicode="&#xab;" horiz-adv-x="630" 
d="M401 25l-113 235l2 8l241 237l105 -96l-171 -166l77 -155zM138 28l-108 224l13 49l215 212l105 -96l-166 -161l82 -165z" />
    <glyph glyph-name="registered" unicode="&#xae;" horiz-adv-x="368" 
d="M257 360q-73 0 -123.5 51t-50.5 123v1q0 72 51 123.5t123 51.5q73 0 123.5 -51t50.5 -123v-1q0 -72 -51 -123.5t-123 -51.5zM257 379q65 0 109.5 46t44.5 110v1q0 64 -44.5 109.5t-109.5 45.5t-109.5 -46t-44.5 -110v-1q0 -64 44.5 -109.5t109.5 -45.5zM179 447v184h89
q37 0 58.5 -16t21.5 -47q0 -42 -37 -58l43 -63h-65l-36 53h-17v-53h-57zM236 543h29q26 0 26 20t-25 20h-30v-40z" />
    <glyph glyph-name="macron" unicode="&#xaf;" 
d="M149 593l31 115h375l-31 -115h-375z" />
    <glyph glyph-name="degree" unicode="&#xb0;" horiz-adv-x="452" 
d="M260 346q-77 0 -123.5 46t-46.5 116q0 83 58 142t141 59q77 0 123.5 -46.5t46.5 -115.5q0 -83 -58 -142t-141 -59zM265 440q39 0 64 31.5t25 70.5q0 32 -19 52.5t-50 20.5q-40 0 -64.5 -31.5t-24.5 -70.5q0 -32 19 -52.5t50 -20.5z" />
    <glyph glyph-name="plusminus" unicode="&#xb1;" horiz-adv-x="640" 
d="M607 376l-179 1l-44 -166h-160l46 166l-181 -1l41 151l180 -1l43 165h160l-45 -165l180 1zM507 0h-518l38 140h517z" />
    <glyph glyph-name="acute" unicode="&#xb4;" 
d="M201 588l154 184l173 -57l-181 -127h-146z" />
    <glyph glyph-name="paragraph" unicode="&#xb6;" horiz-adv-x="597" 
d="M270 0l56 212q-257 13 -257 209q0 126 91.5 202.5t261.5 76.5h230l-188 -700h-194z" />
    <glyph glyph-name="periodcentered" unicode="&#xb7;" horiz-adv-x="302" 
d="M35 215l52 195h198l-53 -195h-197z" />
    <glyph glyph-name="cedilla" unicode="&#xb8;" 
d="M160 -173l-139 64l125 124h130z" />
    <glyph glyph-name="ordmasculine" unicode="&#xba;" horiz-adv-x="402" 
d="M249 395q-67 0 -107 39.5t-40 100.5q0 68 51 119.5t125 51.5q66 0 106 -39.5t40 -100.5q0 -68 -51 -119.5t-124 -51.5zM48 270l21 77h283l-20 -77h-284zM254 482q30 0 49.5 25t19.5 56q0 25 -14 40.5t-37 15.5q-30 0 -49.5 -25t-19.5 -57q0 -24 14 -39.5t37 -15.5z" />
    <glyph glyph-name="guillemotright" unicode="&#xbb;" horiz-adv-x="630" 
d="M372 28l-105 96l166 161l-82 165l142 63l108 -224l-14 -49zM99 37l-105 95l171 166l-77 155l142 63l112 -234l-2 -8z" />
    <glyph glyph-name="questiondown" unicode="&#xbf;" horiz-adv-x="540" 
d="M273 530l46 170h198l-46 -170h-198zM240 -10q-103 0 -165 52t-62 130q0 87 63 146.5t189 79.5l30 74h120l-17 -168l-10 -8q-181 -15 -181 -87q0 -50 66 -50t135 54l78 -135q-100 -88 -246 -88z" />
    <glyph glyph-name="Agrave" unicode="&#xc0;" horiz-adv-x="775" 
d="M-74 0l487 705h190l109 -705h-204l-17 125h-270l-84 -125h-211zM319 276h156l-25 201zM515 920l65 -162h-130l-119 107z" />
    <glyph glyph-name="Aacute" unicode="&#xc1;" horiz-adv-x="775" 
d="M-74 0l487 705h190l109 -705h-204l-17 125h-270l-84 -125h-211zM319 276h156l-25 201zM446 758l152 162l178 -55l-177 -107h-153z" />
    <glyph glyph-name="Acircumflex" unicode="&#xc2;" horiz-adv-x="775" 
d="M-74 0l487 705h190l109 -705h-204l-17 125h-270l-84 -125h-211zM319 276h156l-25 201zM306 755l163 149h169l83 -149h-120l-64 53l-94 -53h-137z" />
    <glyph glyph-name="Atilde" unicode="&#xc3;" horiz-adv-x="775" 
d="M-74 0l487 705h190l109 -705h-204l-17 125h-270l-84 -125h-211zM319 276h156l-25 201zM402 750l-92 28q30 77 63.5 111.5t83.5 34.5q33 0 89 -19.5t69 -19.5q20 0 33 10.5t28 35.5l91 -27q-29 -77 -62.5 -111.5t-83.5 -34.5q-33 0 -89 19.5t-69 19.5q-35 0 -61 -47z" />
    <glyph glyph-name="Adieresis" unicode="&#xc4;" horiz-adv-x="775" 
d="M-74 0l487 705h190l109 -705h-204l-17 125h-270l-84 -125h-211zM319 276h156l-25 201zM552 758l38 138h165l-38 -138h-165zM331 758l38 138h165l-38 -138h-165z" />
    <glyph glyph-name="Aring" unicode="&#xc5;" horiz-adv-x="775" 
d="M-74 0l463 670q-15 24 -15 54q0 59 44.5 100.5t113.5 41.5q55 0 91 -31.5t36 -77.5q0 -61 -48 -104l101 -653h-204l-17 126h-270l-84 -126h-211zM319 277h157l-26 200zM508 675q37 0 59.5 23.5t22.5 51.5q0 25 -18 40.5t-47 15.5q-37 0 -59.5 -23t-22.5 -51
q0 -26 18 -41.5t47 -15.5z" />
    <glyph glyph-name="AE" unicode="&#xc6;" horiz-adv-x="1080" 
d="M-76 0l550 700h673l-44 -165h-349l-28 -106h313l-41 -153h-313l-31 -111h354l-44 -165h-543l34 125h-223l-97 -125h-211zM348 276h148l71 268h-13z" />
    <glyph glyph-name="Ccedilla" unicode="&#xc7;" horiz-adv-x="727" 
d="M291 -173l-139 64l112 111q-99 30 -156 106t-57 184q0 105 52 200.5t154 158.5t231 63q105 0 178.5 -47t105.5 -130l-168 -90q-44 90 -141 90q-86 0 -147.5 -69t-61.5 -162q0 -66 39 -105t101 -39q79 0 150 71l131 -116q-113 -128 -286 -131z" />
    <glyph glyph-name="Egrave" unicode="&#xc8;" horiz-adv-x="669" 
d="M459 910l65 -162h-130l-119 107zM-12 0l188 700h561l-45 -165h-368l-29 -106h334l-41 -153h-334l-30 -111h374l-44 -165h-566z" />
    <glyph glyph-name="Eacute" unicode="&#xc9;" horiz-adv-x="669" 
d="M390 748l152 162l178 -55l-177 -107h-153zM-12 0l188 700h561l-45 -165h-368l-29 -106h334l-41 -153h-334l-30 -111h374l-44 -165h-566z" />
    <glyph glyph-name="Ecircumflex" unicode="&#xca;" horiz-adv-x="669" 
d="M-12 0l188 700h561l-45 -165h-368l-29 -106h334l-41 -153h-334l-30 -111h374l-44 -165h-566zM252 748l163 149h169l83 -149h-120l-64 53l-94 -53h-137z" />
    <glyph glyph-name="Edieresis" unicode="&#xcb;" horiz-adv-x="669" 
d="M497 748l38 138h165l-38 -138h-165zM276 748l38 138h165l-38 -138h-165zM-12 0l188 700h561l-45 -165h-368l-29 -106h334l-41 -153h-334l-30 -111h374l-44 -165h-566z" />
    <glyph glyph-name="Igrave" unicode="&#xcc;" horiz-adv-x="325" 
d="M-7 0l188 700h194l-188 -700h-194zM282 910l65 -162h-130l-119 107z" />
    <glyph glyph-name="Iacute" unicode="&#xcd;" horiz-adv-x="325" 
d="M-7 0l188 700h194l-188 -700h-194zM213 748l152 162l178 -55l-177 -107h-153z" />
    <glyph glyph-name="Icircumflex" unicode="&#xce;" horiz-adv-x="325" 
d="M-7 0l188 700h194l-188 -700h-194zM74 748l163 149h169l83 -149h-120l-64 53l-94 -53h-137z" />
    <glyph glyph-name="Idieresis" unicode="&#xcf;" horiz-adv-x="325" 
d="M-7 0l188 700h194l-188 -700h-194zM319 748l38 138h165l-38 -138h-165zM98 748l38 138h165l-38 -138h-165z" />
    <glyph glyph-name="Eth" unicode="&#xd0;" horiz-adv-x="800" 
d="M34 0l74 276h-84l41 153h84l73 271h221q184 0 274 -90q76 -76 76 -205q0 -161 -115 -276q-129 -129 -367 -129h-277zM267 166h66q132 0 205 73q63 63 63 152q0 64 -36 98q-43 45 -141 45h-58l-29 -105h115l-41 -153h-115z" />
    <glyph glyph-name="Ntilde" unicode="&#xd1;" horiz-adv-x="781" 
d="M397 740l-92 28q30 77 63.5 111.5t83.5 34.5q33 0 89 -19.5t69 -19.5q20 0 33 10.5t28 35.5l91 -27q-29 -77 -62.5 -111.5t-83.5 -34.5q-34 0 -90 19.5t-68 19.5q-35 0 -61 -47zM-12 0l188 700h181l181 -389l105 389h193l-188 -700h-170l-189 403l-108 -403h-193z" />
    <glyph glyph-name="Ograve" unicode="&#xd2;" horiz-adv-x="814" 
d="M520 920l65 -162h-130l-119 107zM386 -13q-148 0 -241 89.5t-93 224.5q0 79 31.5 154t85.5 132t132.5 91.5t167.5 34.5q148 0 241 -89.5t93 -224.5q0 -79 -31.5 -154t-85.5 -132t-132.5 -91.5t-167.5 -34.5zM403 161q88 0 145 69.5t57 153.5q0 69 -40.5 112t-112.5 43
q-87 0 -144.5 -70t-57.5 -153q0 -69 40.5 -112t112.5 -43z" />
    <glyph glyph-name="Oacute" unicode="&#xd3;" horiz-adv-x="814" 
d="M442 758l152 162l178 -55l-177 -107h-153zM386 -13q-148 0 -241 89.5t-93 224.5q0 79 31.5 154t85.5 132t132.5 91.5t167.5 34.5q148 0 241 -89.5t93 -224.5q0 -79 -31.5 -154t-85.5 -132t-132.5 -91.5t-167.5 -34.5zM403 161q88 0 145 69.5t57 153.5q0 69 -40.5 112
t-112.5 43q-87 0 -144.5 -70t-57.5 -153q0 -69 40.5 -112t112.5 -43z" />
    <glyph glyph-name="Ocircumflex" unicode="&#xd4;" horiz-adv-x="814" 
d="M386 -13q-148 0 -241 89.5t-93 224.5q0 79 31.5 154t85.5 132t132.5 91.5t167.5 34.5q148 0 241 -89.5t93 -224.5q0 -79 -31.5 -154t-85.5 -132t-132.5 -91.5t-167.5 -34.5zM403 161q88 0 145 69.5t57 153.5q0 69 -40.5 112t-112.5 43q-87 0 -144.5 -70t-57.5 -153
q0 -69 40.5 -112t112.5 -43zM313 758l163 149h169l83 -149h-120l-64 53l-94 -53h-137z" />
    <glyph glyph-name="Otilde" unicode="&#xd5;" horiz-adv-x="814" 
d="M408 750l-92 28q30 77 63.5 111.5t83.5 34.5q33 0 89 -19.5t69 -19.5q20 0 33 10.5t28 35.5l91 -27q-29 -77 -62.5 -111.5t-83.5 -34.5q-33 0 -89 19.5t-69 19.5q-35 0 -61 -47zM386 -13q-148 0 -241 89.5t-93 224.5q0 79 31.5 154t85.5 132t132.5 91.5t167.5 34.5
q148 0 241 -89.5t93 -224.5q0 -79 -31.5 -154t-85.5 -132t-132.5 -91.5t-167.5 -34.5zM403 161q88 0 145 69.5t57 153.5q0 69 -40.5 112t-112.5 43q-87 0 -144.5 -70t-57.5 -153q0 -69 40.5 -112t112.5 -43z" />
    <glyph glyph-name="Odieresis" unicode="&#xd6;" horiz-adv-x="814" 
d="M557 758l38 138h165l-38 -138h-165zM336 758l38 138h165l-38 -138h-165zM386 -13q-148 0 -241 89.5t-93 224.5q0 79 31.5 154t85.5 132t132.5 91.5t167.5 34.5q148 0 241 -89.5t93 -224.5q0 -79 -31.5 -154t-85.5 -132t-132.5 -91.5t-167.5 -34.5zM403 161q88 0 145 69.5
t57 153.5q0 69 -40.5 112t-112.5 43q-87 0 -144.5 -70t-57.5 -153q0 -69 40.5 -112t112.5 -43z" />
    <glyph glyph-name="multiply" unicode="&#xd7;" horiz-adv-x="640" 
d="M430 90l-105 150l-189 -151l-94 126l190 147l-110 146l138 107l105 -150l189 151l94 -126l-190 -147l110 -146z" />
    <glyph glyph-name="Oslash" unicode="&#xd8;" horiz-adv-x="813" 
d="M386 -13q-126 0 -212 66l-63 -58h-147l141 128q-53 78 -53 178q0 79 31.5 154t85.5 132t132.5 91.5t167.5 34.5q128 0 219 -70l68 62h147l-149 -135q49 -74 49 -171q0 -79 -31.5 -154t-85.5 -132t-132.5 -91.5t-167.5 -34.5zM255 253l292 265q-38 27 -95 27
q-89 0 -148 -72t-59 -158q0 -35 10 -62zM403 155q89 0 148.5 72t59.5 158q0 27 -8 53l-287 -262q39 -21 87 -21z" />
    <glyph glyph-name="Ugrave" unicode="&#xd9;" horiz-adv-x="760" 
d="M497 910l65 -162h-130l-119 107zM342 -13q-135 0 -209 64.5t-74 180.5q0 51 16 112l96 356h196l-99 -370q-10 -37 -10 -66q0 -48 28.5 -75t80.5 -27q57 0 94 37q38 36 59 116l104 385h196l-111 -414q-37 -137 -109 -209q-90 -90 -258 -90z" />
    <glyph glyph-name="Uacute" unicode="&#xda;" horiz-adv-x="760" 
d="M428 748l152 162l178 -55l-177 -107h-153zM342 -13q-135 0 -209 64.5t-74 180.5q0 51 16 112l96 356h196l-99 -370q-10 -37 -10 -66q0 -48 28.5 -75t80.5 -27q57 0 94 37q38 36 59 116l104 385h196l-111 -414q-37 -137 -109 -209q-90 -90 -258 -90z" />
    <glyph glyph-name="Ucircumflex" unicode="&#xdb;" horiz-adv-x="760" 
d="M342 -13q-135 0 -209 64.5t-74 180.5q0 51 16 112l96 356h196l-99 -370q-10 -37 -10 -66q0 -48 28.5 -75t80.5 -27q57 0 94 37q38 36 59 116l104 385h196l-111 -414q-37 -137 -109 -209q-90 -90 -258 -90zM289 748l163 149h169l83 -149h-120l-64 53l-94 -53h-137z" />
    <glyph glyph-name="Udieresis" unicode="&#xdc;" horiz-adv-x="760" 
d="M534 748l38 138h165l-38 -138h-165zM313 748l38 138h165l-38 -138h-165zM342 -13q-135 0 -209 64.5t-74 180.5q0 51 16 112l96 356h196l-99 -370q-10 -37 -10 -66q0 -48 28.5 -75t80.5 -27q57 0 94 37q38 36 59 116l104 385h196l-111 -414q-37 -137 -109 -209
q-90 -90 -258 -90z" />
    <glyph glyph-name="Yacute" unicode="&#xdd;" horiz-adv-x="677" 
d="M159 0l73 271l-141 429h209l69 -262l211 262h232l-391 -450l-67 -250h-195zM374 748l152 162l178 -55l-177 -107h-153z" />
    <glyph glyph-name="Thorn" unicode="&#xde;" horiz-adv-x="682" 
d="M-12 0l189 700h194l-26 -100h37q165 0 238 -73q54 -54 54 -141q0 -129 -94.5 -204.5t-249.5 -75.5h-119l-28 -106h-195zM253 260h73q71 0 111 29.5t40 79.5q0 29 -20 49q-27 27 -83 27h-72z" />
    <glyph glyph-name="germandbls" unicode="&#xdf;" horiz-adv-x="639" 
d="M235 -3l36 138q71 0 104.5 26t33.5 66q0 63 -94 71l27 101q121 25 121 115q0 31 -18.5 49t-45.5 18q-72 0 -102 -110l-126 -471h-190l129 479q32 120 94 184q75 75 202 75q106 0 170 -54t64 -142q0 -73 -40 -125t-117 -74q106 -39 106 -134q0 -99 -90.5 -160.5
t-263.5 -51.5z" />
    <glyph glyph-name="agrave" unicode="&#xe0;" horiz-adv-x="597" 
d="M152 -11q-67 0 -109 40t-42 107q0 88 65 139.5t173 51.5q68 0 137 -21l2 7q5 22 5 33q0 58 -93 58q-78 0 -146 -27l-27 138q94 33 213 33q120 0 180.5 -45t60.5 -127q0 -36 -11 -78l-80 -298h-187l15 58q-74 -69 -156 -69zM240 106q36 0 68 28t43 70l5 18q-36 12 -71 12
q-45 0 -72 -21t-27 -57q0 -23 15 -36.5t39 -13.5zM317 592l-112 127l179 57l55 -184h-122z" />
    <glyph glyph-name="aacute" unicode="&#xe1;" horiz-adv-x="597" 
d="M152 -11q-67 0 -109 40t-42 107q0 88 65 139.5t173 51.5q68 0 137 -21l2 7q5 22 5 33q0 58 -93 58q-78 0 -146 -27l-27 138q94 33 213 33q120 0 180.5 -45t60.5 -127q0 -36 -11 -78l-80 -298h-187l15 58q-74 -69 -156 -69zM240 106q36 0 68 28t43 70l5 18q-36 12 -71 12
q-45 0 -72 -21t-27 -57q0 -23 15 -36.5t39 -13.5zM308 592l154 184l173 -57l-181 -127h-146z" />
    <glyph glyph-name="acircumflex" unicode="&#xe2;" horiz-adv-x="597" 
d="M152 -11q-67 0 -109 40t-42 107q0 88 65 139.5t173 51.5q68 0 137 -21l2 7q5 22 5 33q0 58 -93 58q-78 0 -146 -27l-27 138q94 33 213 33q120 0 180.5 -45t60.5 -127q0 -36 -11 -78l-80 -298h-187l15 58q-74 -69 -156 -69zM240 106q36 0 68 28t43 70l5 18q-36 12 -71 12
q-45 0 -72 -21t-27 -57q0 -23 15 -36.5t39 -13.5zM169 592l172 164h154l84 -164h-113l-68 61l-100 -61h-129z" />
    <glyph glyph-name="atilde" unicode="&#xe3;" horiz-adv-x="597" 
d="M152 -11q-67 0 -109 40t-42 107q0 88 65 139.5t173 51.5q68 0 137 -21l2 7q5 22 5 33q0 58 -93 58q-78 0 -146 -27l-27 138q94 33 213 33q120 0 180.5 -45t60.5 -127q0 -36 -11 -78l-80 -298h-187l15 58q-74 -69 -156 -69zM240 106q36 0 68 28t43 70l5 18q-36 12 -71 12
q-45 0 -72 -21t-27 -57q0 -23 15 -36.5t39 -13.5zM266 584l-92 28q30 77 63 111.5t82 34.5q33 0 85 -19.5t64 -19.5q20 0 32 10.5t28 35.5l91 -27q-30 -77 -62.5 -111.5t-82.5 -34.5q-33 0 -84.5 19.5t-64.5 19.5q-20 0 -32 -10.5t-27 -36.5z" />
    <glyph glyph-name="adieresis" unicode="&#xe4;" horiz-adv-x="597" 
d="M152 -11q-67 0 -109 40t-42 107q0 88 65 139.5t173 51.5q68 0 137 -21l2 7q5 22 5 33q0 58 -93 58q-78 0 -146 -27l-27 138q94 33 213 33q120 0 180.5 -45t60.5 -127q0 -36 -11 -78l-80 -298h-187l15 58q-74 -69 -156 -69zM240 106q36 0 68 28t43 70l5 18q-36 12 -71 12
q-45 0 -72 -21t-27 -57q0 -23 15 -36.5t39 -13.5zM409 592l39 142h165l-39 -142h-165zM190 592l39 142h165l-39 -142h-165z" />
    <glyph glyph-name="aring" unicode="&#xe5;" horiz-adv-x="597" 
d="M152 -11q-67 0 -109 40t-42 107q0 88 65 139.5t173 51.5q68 0 137 -21l2 7q5 22 5 33q0 58 -93 58q-78 0 -146 -27l-27 138q94 33 213 33q120 0 180.5 -45t60.5 -127q0 -36 -11 -78l-80 -298h-187l15 58q-74 -69 -156 -69zM240 106q36 0 68 28t43 70l5 18q-36 12 -71 12
q-45 0 -72 -21t-27 -57q0 -23 15 -36.5t39 -13.5zM405 593q-54 0 -87.5 31.5t-33.5 79.5q0 58 42 100.5t102 42.5q55 0 88 -31.5t33 -79.5q0 -58 -42 -100.5t-102 -42.5zM408 651q32 0 52.5 24t20.5 57q0 26 -15.5 42t-40.5 16q-31 0 -52 -24t-21 -57q0 -26 15.5 -42
t40.5 -16z" />
    <glyph glyph-name="ae" unicode="&#xe6;" horiz-adv-x="931" 
d="M407 85q-97 -96 -233 -96q-80 0 -126.5 39.5t-46.5 107.5q0 88 65 139.5t173 51.5q68 0 137 -21l2 7q5 22 5 33q0 58 -93 58q-78 0 -146 -27l-27 138q94 33 213 33q124 0 176 -64q84 69 185 69q108 0 165 -64.5t57 -159.5q0 -54 -21 -111h-359q7 -89 101 -89q56 0 115 43
l88 -104q-91 -81 -224 -81q-138 0 -206 98zM546 315h193q5 15 5 29q0 30 -19 49.5t-55 19.5q-40 0 -73.5 -25.5t-50.5 -72.5zM364 218q-37 16 -79 16q-45 0 -72 -21t-27 -57q0 -23 17 -37t47 -14q66 0 123 54q-7 27 -9 59z" />
    <glyph glyph-name="ccedilla" unicode="&#xe7;" horiz-adv-x="563" 
d="M195 -173l-139 64l116 115q-67 26 -105.5 82.5t-38.5 135.5q0 136 95 232t230 96q90 0 148.5 -41t81.5 -107l-149 -77q-29 68 -93 68q-53 0 -91.5 -49t-38.5 -112q0 -41 23.5 -65.5t59.5 -24.5q52 0 102 50l116 -101q-86 -101 -218 -106z" />
    <glyph glyph-name="egrave" unicode="&#xe8;" horiz-adv-x="602" 
d="M203 218q7 -89 101 -89q56 0 115 43l88 -104q-93 -81 -221 -81q-119 0 -188.5 65t-69.5 175q0 127 91 226.5t234 99.5q113 0 171.5 -64.5t58.5 -159.5q0 -54 -21 -111h-359zM216 315h193q5 15 5 29q0 30 -19 49.5t-55 19.5q-40 0 -73.5 -25.5t-50.5 -72.5zM327 592
l-112 127l179 57l55 -184h-122z" />
    <glyph glyph-name="eacute" unicode="&#xe9;" horiz-adv-x="602" 
d="M317 592l154 184l173 -57l-181 -127h-146zM203 218q7 -89 101 -89q56 0 115 43l88 -104q-93 -81 -221 -81q-119 0 -188.5 65t-69.5 175q0 127 91 226.5t234 99.5q113 0 171.5 -64.5t58.5 -159.5q0 -54 -21 -111h-359zM216 315h193q5 15 5 29q0 30 -19 49.5t-55 19.5
q-40 0 -73.5 -25.5t-50.5 -72.5z" />
    <glyph glyph-name="ecircumflex" unicode="&#xea;" horiz-adv-x="602" 
d="M179 592l172 164h154l84 -164h-113l-68 61l-100 -61h-129zM203 218q7 -89 101 -89q56 0 115 43l88 -104q-93 -81 -221 -81q-119 0 -188.5 65t-69.5 175q0 127 91 226.5t234 99.5q113 0 171.5 -64.5t58.5 -159.5q0 -54 -21 -111h-359zM216 315h193q5 15 5 29
q0 30 -19 49.5t-55 19.5q-40 0 -73.5 -25.5t-50.5 -72.5z" />
    <glyph glyph-name="edieresis" unicode="&#xeb;" horiz-adv-x="602" 
d="M419 592l39 142h165l-39 -142h-165zM200 592l39 142h165l-39 -142h-165zM203 218q7 -89 101 -89q56 0 115 43l88 -104q-93 -81 -221 -81q-119 0 -188.5 65t-69.5 175q0 127 91 226.5t234 99.5q113 0 171.5 -64.5t58.5 -159.5q0 -54 -21 -111h-359zM216 315h193q5 15 5 29
q0 30 -19 49.5t-55 19.5q-40 0 -73.5 -25.5t-50.5 -72.5z" />
    <glyph glyph-name="igrave" unicode="&#xec;" horiz-adv-x="302" 
d="M-17 0l145 541h190l-145 -541h-190zM171 588l-112 127l179 57l55 -184h-122z" />
    <glyph glyph-name="iacute" unicode="&#xed;" horiz-adv-x="302" 
d="M162 588l154 184l173 -57l-181 -127h-146zM-17 0l145 541h190l-145 -541h-190z" />
    <glyph glyph-name="icircumflex" unicode="&#xee;" horiz-adv-x="302" 
d="M24 588l172 164h154l84 -164h-113l-68 61l-100 -61h-129zM-17 0l145 541h190l-145 -541h-190z" />
    <glyph glyph-name="idieresis" unicode="&#xef;" horiz-adv-x="302" 
d="M263 588l39 142h165l-39 -142h-165zM44 588l39 142h165l-39 -142h-165zM-17 0l145 541h190l-145 -541h-190z" />
    <glyph glyph-name="eth" unicode="&#xf0;" horiz-adv-x="650" 
d="M625 658l-81 -20q80 -125 80 -265q0 -181 -112 -293q-93 -93 -221 -93q-121 0 -191 69t-70 180q0 120 80 211.5t196 91.5q81 0 135 -56q-21 55 -65 114l-122 -29l-25 80l87 21q-26 28 -60 61h217l17 -20l110 27zM302 144q54 0 91.5 46t37.5 106q0 45 -25 72t-67 27
q-55 0 -91.5 -45t-36.5 -106q0 -45 24.5 -72.5t66.5 -27.5z" />
    <glyph glyph-name="ntilde" unicode="&#xf1;" horiz-adv-x="630" 
d="M-21 0l145 541h190l-17 -62q70 74 155 74q73 0 115 -43.5t42 -118.5q0 -37 -16 -97l-78 -294h-190l76 283q6 21 6 44q0 57 -60 57q-74 0 -101 -98l-77 -286h-190zM285 584l-92 28q30 77 63 111.5t82 34.5q34 0 85 -19.5t64 -19.5q20 0 32 10.5t28 35.5l91 -27
q-30 -77 -62.5 -111.5t-82.5 -34.5q-33 0 -84.5 19.5t-64.5 19.5q-20 0 -32 -10.5t-27 -36.5z" />
    <glyph glyph-name="ograve" unicode="&#xf2;" horiz-adv-x="644" 
d="M295 -13q-121 0 -193 71t-72 181q0 125 92.5 219.5t225.5 94.5q122 0 194 -71t72 -180q0 -126 -92.5 -220.5t-226.5 -94.5zM306 145q54 0 90 46.5t36 103.5q0 45 -26 72.5t-68 27.5q-54 0 -90 -46.5t-36 -102.5q0 -46 26 -73.5t68 -27.5zM341 592l-112 127l179 57
l55 -184h-122z" />
    <glyph glyph-name="oacute" unicode="&#xf3;" horiz-adv-x="644" 
d="M323 592l154 184l173 -57l-181 -127h-146zM295 -13q-121 0 -193 71t-72 181q0 125 92.5 219.5t225.5 94.5q122 0 194 -71t72 -180q0 -126 -92.5 -220.5t-226.5 -94.5zM306 145q54 0 90 46.5t36 103.5q0 45 -26 72.5t-68 27.5q-54 0 -90 -46.5t-36 -102.5q0 -46 26 -73.5
t68 -27.5z" />
    <glyph glyph-name="ocircumflex" unicode="&#xf4;" horiz-adv-x="644" 
d="M194 592l172 164h154l84 -164h-113l-68 61l-100 -61h-129zM295 -13q-121 0 -193 71t-72 181q0 125 92.5 219.5t225.5 94.5q122 0 194 -71t72 -180q0 -126 -92.5 -220.5t-226.5 -94.5zM306 145q54 0 90 46.5t36 103.5q0 45 -26 72.5t-68 27.5q-54 0 -90 -46.5t-36 -102.5
q0 -46 26 -73.5t68 -27.5z" />
    <glyph glyph-name="otilde" unicode="&#xf5;" horiz-adv-x="644" 
d="M295 -13q-121 0 -193 71t-72 181q0 125 92.5 219.5t225.5 94.5q122 0 194 -71t72 -180q0 -126 -92.5 -220.5t-226.5 -94.5zM306 145q54 0 90 46.5t36 103.5q0 45 -26 72.5t-68 27.5q-54 0 -90 -46.5t-36 -102.5q0 -46 26 -73.5t68 -27.5zM291 584l-92 28q30 77 63 111.5
t82 34.5q34 0 85 -19.5t64 -19.5q20 0 32 10.5t28 35.5l91 -27q-30 -77 -62.5 -111.5t-82.5 -34.5q-33 0 -84.5 19.5t-64.5 19.5q-20 0 -32 -10.5t-27 -36.5z" />
    <glyph glyph-name="odieresis" unicode="&#xf6;" horiz-adv-x="644" 
d="M434 592l39 142h165l-39 -142h-165zM215 592l39 142h165l-39 -142h-165zM295 -13q-121 0 -193 71t-72 181q0 125 92.5 219.5t225.5 94.5q122 0 194 -71t72 -180q0 -126 -92.5 -220.5t-226.5 -94.5zM306 145q54 0 90 46.5t36 103.5q0 45 -26 72.5t-68 27.5
q-54 0 -90 -46.5t-36 -102.5q0 -46 26 -73.5t68 -27.5z" />
    <glyph glyph-name="divide" unicode="&#xf7;" horiz-adv-x="640" 
d="M291 492l43 161h178l-43 -161h-178zM585 276h-526l41 152h526zM173 51l43 161h178l-43 -161h-178z" />
    <glyph glyph-name="oslash" unicode="&#xf8;" horiz-adv-x="644" 
d="M295 -12q-100 0 -169 51l-49 -44h-133l122 109q-36 58 -36 138q0 123 92.5 217t225.5 94q103 0 172 -52l50 45h133l-124 -111q35 -58 35 -136q0 -123 -93 -217t-226 -94zM206 219l189 169q-22 14 -55 14q-58 0 -97 -48.5t-39 -108.5q0 -8 2 -26zM304 138q58 0 97 49
t39 109q0 9 -2 23l-187 -168q24 -13 53 -13z" />
    <glyph glyph-name="ugrave" unicode="&#xf9;" horiz-adv-x="632" 
d="M183 -12q-73 0 -115 43.5t-42 118.5q0 40 15 97l79 294h190l-76 -283q-7 -24 -7 -44q0 -57 61 -57q75 0 100 98l77 286h190l-144 -541h-190l16 62q-70 -74 -154 -74zM335 588l-112 127l179 57l55 -184h-122z" />
    <glyph glyph-name="uacute" unicode="&#xfa;" horiz-adv-x="632" 
d="M326 588l154 184l173 -57l-181 -127h-146zM183 -12q-73 0 -115 43.5t-42 118.5q0 40 15 97l79 294h190l-76 -283q-7 -24 -7 -44q0 -57 61 -57q75 0 100 98l77 286h190l-144 -541h-190l16 62q-70 -74 -154 -74z" />
    <glyph glyph-name="ucircumflex" unicode="&#xfb;" horiz-adv-x="632" 
d="M187 588l172 164h154l84 -164h-113l-68 61l-100 -61h-129zM183 -12q-73 0 -115 43.5t-42 118.5q0 40 15 97l79 294h190l-76 -283q-7 -24 -7 -44q0 -57 61 -57q75 0 100 98l77 286h190l-144 -541h-190l16 62q-70 -74 -154 -74z" />
    <glyph glyph-name="udieresis" unicode="&#xfc;" horiz-adv-x="632" 
d="M427 588l39 142h165l-39 -142h-165zM208 588l39 142h165l-39 -142h-165zM183 -12q-73 0 -115 43.5t-42 118.5q0 40 15 97l79 294h190l-76 -283q-7 -24 -7 -44q0 -57 61 -57q75 0 100 98l77 286h190l-144 -541h-190l16 62q-70 -74 -154 -74z" />
    <glyph glyph-name="yacute" unicode="&#xfd;" horiz-adv-x="622" 
d="M94 -163q-84 0 -144 39l85 139q37 -27 75 -27q27 0 47 20l-70 533h193l22 -325l182 325h200l-335 -538q-58 -91 -116.5 -128.5t-138.5 -37.5zM318 588l154 184l173 -57l-181 -127h-146z" />
    <glyph glyph-name="thorn" unicode="&#xfe;" horiz-adv-x="673" 
d="M-64 -160l239 890h189l-66 -246q71 69 154 69t137.5 -60t54.5 -162q0 -144 -86.5 -243.5t-204.5 -99.5q-107 0 -164 86l-63 -234h-190zM320 146q54 0 93 45.5t39 109.5q0 44 -25 69.5t-67 25.5q-55 0 -94.5 -46t-39.5 -108q0 -43 26 -69.5t68 -26.5z" />
    <glyph glyph-name="ydieresis" unicode="&#xff;" horiz-adv-x="622" 
d="M94 -163q-84 0 -144 39l85 139q37 -27 75 -27q27 0 47 20l-70 533h193l22 -325l182 325h200l-335 -538q-58 -91 -116.5 -128.5t-138.5 -37.5zM419 588l39 142h165l-39 -142h-165zM200 588l39 142h165l-39 -142h-165z" />
    <glyph glyph-name="Amacron" unicode="&#x100;" horiz-adv-x="775" 
d="M-74 0l487 705h190l109 -705h-204l-17 125h-270l-84 -125h-211zM319 276h156l-25 201zM327 765l32 117h398l-32 -117h-398z" />
    <glyph glyph-name="amacron" unicode="&#x101;" horiz-adv-x="597" 
d="M152 -11q-67 0 -109 40t-42 107q0 88 65 139.5t173 51.5q68 0 137 -21l2 7q5 22 5 33q0 58 -93 58q-78 0 -146 -27l-27 138q94 33 213 33q120 0 180.5 -45t60.5 -127q0 -36 -11 -78l-80 -298h-187l15 58q-74 -69 -156 -69zM240 106q36 0 68 28t43 70l5 18q-36 12 -71 12
q-45 0 -72 -21t-27 -57q0 -23 15 -36.5t39 -13.5zM195 597l31 115h375l-31 -115h-375z" />
    <glyph glyph-name="Abreve" unicode="&#x102;" horiz-adv-x="775" 
d="M-74 0l487 705h190l109 -705h-204l-17 125h-270l-84 -125h-211zM319 276h156l-25 201zM524 756q-84 0 -126 38.5t-32 112.5h109q6 -45 73 -45q61 0 92 45h119q-29 -74 -90 -112.5t-145 -38.5z" />
    <glyph glyph-name="abreve" unicode="&#x103;" horiz-adv-x="597" 
d="M152 -11q-67 0 -109 40t-42 107q0 88 65 139.5t173 51.5q68 0 137 -21l2 7q5 22 5 33q0 58 -93 58q-78 0 -146 -27l-27 138q94 33 213 33q120 0 180.5 -45t60.5 -127q0 -36 -11 -78l-80 -298h-187l15 58q-74 -69 -156 -69zM240 106q36 0 68 28t43 70l5 18q-36 12 -71 12
q-45 0 -72 -21t-27 -57q0 -23 15 -36.5t39 -13.5zM397 590q-86 0 -132 44.5t-45 121.5h113q2 -25 20 -41.5t50 -16.5q66 0 100 58h114q-23 -76 -81.5 -121t-138.5 -45z" />
    <glyph glyph-name="Aogonek" unicode="&#x104;" horiz-adv-x="775" 
d="M495 -99q0 46 66 99h-53l-17 125h-270l-84 -125h-211l487 705h190l109 -705h-32q-36 -36 -36 -57q0 -26 63 -26l-21 -81q-38 -5 -66 -5q-60 0 -92.5 18.5t-32.5 51.5zM319 276h156l-25 201z" />
    <glyph glyph-name="aogonek" unicode="&#x105;" horiz-adv-x="597" 
d="M264 -99q0 46 66 99h-37l15 58q-74 -69 -156 -69q-67 0 -109 40t-42 107q0 88 65 139.5t173 51.5q68 0 137 -21l2 7q5 22 5 33q0 58 -93 58q-78 0 -146 -27l-27 138q94 33 213 33q120 0 180.5 -45t60.5 -127q0 -36 -11 -78l-80 -298h-31q-36 -36 -36 -57q0 -26 63 -26
l-21 -81q-38 -5 -66 -5q-60 0 -92.5 18.5t-32.5 51.5zM240 106q36 0 68 28t43 70l5 18q-36 12 -71 12q-45 0 -72 -21t-27 -57q0 -23 15 -36.5t39 -13.5z" />
    <glyph glyph-name="Cacute" unicode="&#x106;" horiz-adv-x="727" 
d="M382 -14q-147 0 -239 83.5t-92 222.5q0 105 52 200.5t154 158.5t231 63q105 0 178.5 -47t105.5 -130l-168 -90q-44 90 -141 90q-86 0 -147.5 -69t-61.5 -162q0 -66 39 -105t101 -39q79 0 150 71l131 -116q-116 -131 -293 -131zM440 758l152 162l178 -55l-177 -107h-153z
" />
    <glyph glyph-name="cacute" unicode="&#x107;" horiz-adv-x="563" 
d="M303 592l154 184l173 -57l-181 -127h-146zM281 -13q-111 0 -182 64.5t-71 172.5q0 136 95 232t230 96q90 0 148.5 -41t81.5 -107l-149 -77q-29 68 -93 68q-53 0 -91.5 -49t-38.5 -112q0 -41 23.5 -65.5t59.5 -24.5q52 0 102 50l116 -101q-91 -106 -231 -106z" />
    <glyph glyph-name="Cdotaccent" unicode="&#x10a;" horiz-adv-x="727" 
d="M432 758l38 138h170l-38 -138h-170zM382 -14q-147 0 -239 83.5t-92 222.5q0 105 52 200.5t154 158.5t231 63q105 0 178.5 -47t105.5 -130l-168 -90q-44 90 -141 90q-86 0 -147.5 -69t-61.5 -162q0 -66 39 -105t101 -39q79 0 150 71l131 -116q-116 -131 -293 -131z" />
    <glyph glyph-name="cdotaccent" unicode="&#x10b;" horiz-adv-x="563" 
d="M281 -13q-111 0 -182 64.5t-71 172.5q0 136 95 232t230 96q90 0 148.5 -41t81.5 -107l-149 -77q-29 68 -93 68q-53 0 -91.5 -49t-38.5 -112q0 -41 23.5 -65.5t59.5 -24.5q52 0 102 50l116 -101q-91 -106 -231 -106zM293 592l39 142h169l-39 -142h-169z" />
    <glyph glyph-name="Ccaron" unicode="&#x10c;" horiz-adv-x="727" 
d="M382 -14q-147 0 -239 83.5t-92 222.5q0 105 52 200.5t154 158.5t231 63q105 0 178.5 -47t105.5 -130l-168 -90q-44 90 -141 90q-86 0 -147.5 -69t-61.5 -162q0 -66 39 -105t101 -39q79 0 150 71l131 -116q-116 -131 -293 -131zM770 907l-163 -149h-169l-83 149h120
l64 -53l94 53h137z" />
    <glyph glyph-name="ccaron" unicode="&#x10d;" horiz-adv-x="563" 
d="M604 756l-172 -164h-154l-84 164h114l67 -61l101 61h128zM281 -13q-111 0 -182 64.5t-71 172.5q0 136 95 232t230 96q90 0 148.5 -41t81.5 -107l-149 -77q-29 68 -93 68q-53 0 -91.5 -49t-38.5 -112q0 -41 23.5 -65.5t59.5 -24.5q52 0 102 50l116 -101
q-91 -106 -231 -106z" />
    <glyph glyph-name="Dcaron" unicode="&#x10e;" horiz-adv-x="762" 
d="M725 897l-163 -149h-169l-83 149h120l64 -53l94 53h137zM-12 0l188 700h226q184 0 274 -90q76 -76 76 -205q0 -161 -115 -276q-129 -129 -367 -129h-282zM229 172h64q129 0 200 71q60 60 60 146q0 61 -35 96q-41 43 -137 43h-56z" />
    <glyph glyph-name="dcaron" unicode="&#x10f;" horiz-adv-x="673" 
d="M733 515l57 215h141l-1 -3l-122 -212h-75zM220 -12q-83 0 -137.5 60t-54.5 162q0 144 86.5 243.5t204.5 99.5q108 0 164 -86l70 263h190l-195 -730h-190l16 57q-72 -69 -154 -69zM312 145q54 0 94 46t40 108q0 43 -26 69.5t-68 26.5q-54 0 -93 -45.5t-39 -109.5
q0 -43 25.5 -69t66.5 -26z" />
    <glyph glyph-name="Dcroat" unicode="&#x110;" horiz-adv-x="800" 
d="M34 0l74 276h-84l41 153h84l73 271h221q184 0 274 -90q76 -76 76 -205q0 -161 -115 -276q-129 -129 -367 -129h-277zM267 166h66q132 0 205 73q63 63 63 152q0 64 -36 98q-43 45 -141 45h-58l-29 -105h115l-41 -153h-115z" />
    <glyph glyph-name="dcroat" unicode="&#x111;" horiz-adv-x="673" 
d="M367 594l24 90h150l12 46h190l-13 -46h64l-24 -90h-64l-158 -594h-190l16 57q-72 -69 -154 -69q-83 0 -137.5 60t-54.5 162q0 144 86.5 243.5t204.5 99.5q108 0 164 -86l34 127h-150zM312 145q54 0 94 46t40 108q0 43 -26 69.5t-68 26.5q-54 0 -93 -45.5t-39 -109.5
q0 -43 25.5 -69t66.5 -26z" />
    <glyph glyph-name="Emacron" unicode="&#x112;" horiz-adv-x="669" 
d="M272 755l32 117h398l-32 -117h-398zM-12 0l188 700h561l-45 -165h-368l-29 -106h334l-41 -153h-334l-30 -111h374l-44 -165h-566z" />
    <glyph glyph-name="emacron" unicode="&#x113;" horiz-adv-x="602" 
d="M203 218q7 -89 101 -89q56 0 115 43l88 -104q-93 -81 -221 -81q-119 0 -188.5 65t-69.5 175q0 127 91 226.5t234 99.5q113 0 171.5 -64.5t58.5 -159.5q0 -54 -21 -111h-359zM216 315h193q5 15 5 29q0 30 -19 49.5t-55 19.5q-40 0 -73.5 -25.5t-50.5 -72.5zM205 597
l31 115h375l-31 -115h-375z" />
    <glyph glyph-name="Ebreve" unicode="&#x114;" horiz-adv-x="669" 
d="M469 746q-84 0 -126 38.5t-32 112.5h109q6 -45 73 -45q61 0 92 45h119q-29 -74 -90 -112.5t-145 -38.5zM-12 0l188 700h561l-45 -165h-368l-29 -106h334l-41 -153h-334l-30 -111h374l-44 -165h-566z" />
    <glyph glyph-name="ebreve" unicode="&#x115;" horiz-adv-x="602" 
d="M203 218q7 -89 101 -89q56 0 115 43l88 -104q-93 -81 -221 -81q-119 0 -188.5 65t-69.5 175q0 127 91 226.5t234 99.5q113 0 171.5 -64.5t58.5 -159.5q0 -54 -21 -111h-359zM216 315h193q5 15 5 29q0 30 -19 49.5t-55 19.5q-40 0 -73.5 -25.5t-50.5 -72.5zM407 590
q-86 0 -132 44.5t-45 121.5h113q2 -25 20 -41.5t50 -16.5q66 0 100 58h114q-23 -76 -81.5 -121t-138.5 -45z" />
    <glyph glyph-name="Edotaccent" unicode="&#x116;" horiz-adv-x="669" 
d="M383 748l38 138h170l-38 -138h-170zM-12 0l188 700h561l-45 -165h-368l-29 -106h334l-41 -153h-334l-30 -111h374l-44 -165h-566z" />
    <glyph glyph-name="edotaccent" unicode="&#x117;" horiz-adv-x="602" 
d="M203 218q7 -89 101 -89q56 0 115 43l88 -104q-93 -81 -221 -81q-119 0 -188.5 65t-69.5 175q0 127 91 226.5t234 99.5q113 0 171.5 -64.5t58.5 -159.5q0 -54 -21 -111h-359zM216 315h193q5 15 5 29q0 30 -19 49.5t-55 19.5q-40 0 -73.5 -25.5t-50.5 -72.5zM308 592
l39 142h169l-39 -142h-169z" />
    <glyph glyph-name="Eogonek" unicode="&#x118;" horiz-adv-x="669" 
d="M-12 0l188 700h561l-45 -165h-368l-29 -106h334l-41 -153h-334l-30 -111h374l-44 -165h-39q-36 -36 -36 -57q0 -26 63 -26l-21 -81q-38 -5 -66 -5q-60 0 -92.5 18.5t-32.5 51.5q0 46 66 99h-408z" />
    <glyph glyph-name="eogonek" unicode="&#x119;" horiz-adv-x="602" 
d="M282 -12q-117 0 -185.5 65t-68.5 174q0 127 91 226.5t234 99.5q113 0 171.5 -64.5t58.5 -159.5q0 -54 -21 -111h-359q7 -89 101 -89q56 0 115 43l88 -104l-59 -46q-61 -52 -61 -79q0 -26 63 -26l-21 -81q-38 -5 -66 -5q-60 0 -92.5 18.5t-32.5 51.5q0 41 52 87h-8z
M216 315h193q5 15 5 29q0 30 -19 49.5t-55 19.5q-40 0 -73.5 -25.5t-50.5 -72.5z" />
    <glyph glyph-name="Ecaron" unicode="&#x11a;" horiz-adv-x="669" 
d="M721 897l-163 -149h-169l-83 149h120l64 -53l94 53h137zM-12 0l188 700h561l-45 -165h-368l-29 -106h334l-41 -153h-334l-30 -111h374l-44 -165h-566z" />
    <glyph glyph-name="ecaron" unicode="&#x11b;" horiz-adv-x="602" 
d="M618 756l-172 -164h-154l-84 164h114l67 -61l101 61h128zM203 218q7 -89 101 -89q56 0 115 43l88 -104q-93 -81 -221 -81q-119 0 -188.5 65t-69.5 175q0 127 91 226.5t234 99.5q113 0 171.5 -64.5t58.5 -159.5q0 -54 -21 -111h-359zM216 315h193q5 15 5 29q0 30 -19 49.5
t-55 19.5q-40 0 -73.5 -25.5t-50.5 -72.5z" />
    <glyph glyph-name="Gbreve" unicode="&#x11e;" horiz-adv-x="762" 
d="M524 756q-84 0 -126 38.5t-32 112.5h109q6 -45 73 -45q61 0 92 45h119q-29 -74 -90 -112.5t-145 -38.5zM387 -14q-65 0 -123.5 18.5t-107 55t-77.5 97t-29 138.5q0 172 127 295.5t322 123.5q99 0 175 -34t115 -85l-130 -126q-72 72 -173 72q-104 0 -171 -69.5t-67 -168.5
q0 -71 44.5 -110t112.5 -39q52 0 93 19l28 94h-135l37 142h321l-100 -353q-121 -70 -262 -70z" />
    <glyph glyph-name="gbreve" unicode="&#x11f;" horiz-adv-x="668" 
d="M238 -162q-77 0 -154.5 20.5t-130.5 53.5l85 119q92 -56 192 -56q72 0 112 40q28 29 45 87l3 12q-74 -66 -164 -66q-78 0 -135.5 50.5t-57.5 136.5q0 128 82.5 222.5t201.5 94.5q109 0 164 -88l20 77h190l-115 -430q-35 -132 -96 -194q-80 -79 -242 -79zM310 185
q54 0 91 39.5t37 91.5q0 38 -24.5 62t-65.5 24q-53 0 -89.5 -40.5t-36.5 -93.5q0 -38 24 -60.5t64 -22.5zM439 590q-86 0 -132 44.5t-45 121.5h113q2 -25 20 -41.5t50 -16.5q66 0 100 58h114q-23 -76 -81.5 -121t-138.5 -45z" />
    <glyph glyph-name="Gdotaccent" unicode="&#x120;" horiz-adv-x="762" 
d="M439 758l38 138h170l-38 -138h-170zM387 -14q-65 0 -123.5 18.5t-107 55t-77.5 97t-29 138.5q0 172 127 295.5t322 123.5q99 0 175 -34t115 -85l-130 -126q-72 72 -173 72q-104 0 -171 -69.5t-67 -168.5q0 -71 44.5 -110t112.5 -39q52 0 93 19l28 94h-135l37 142h321
l-100 -353q-121 -70 -262 -70z" />
    <glyph glyph-name="gdotaccent" unicode="&#x121;" horiz-adv-x="668" 
d="M238 -162q-77 0 -154.5 20.5t-130.5 53.5l85 119q92 -56 192 -56q72 0 112 40q28 29 45 87l3 12q-74 -66 -164 -66q-78 0 -135.5 50.5t-57.5 136.5q0 128 82.5 222.5t201.5 94.5q109 0 164 -88l20 77h190l-115 -430q-35 -132 -96 -194q-80 -79 -242 -79zM310 185
q54 0 91 39.5t37 91.5q0 38 -24.5 62t-65.5 24q-53 0 -89.5 -40.5t-36.5 -93.5q0 -38 24 -60.5t64 -22.5zM340 592l39 142h169l-39 -142h-169z" />
    <glyph glyph-name="Gcommaaccent" unicode="&#x122;" horiz-adv-x="762" 
d="M193 -314l7 57q83 7 94 65h-68l37 136h161l-31 -117q-19 -74 -69 -106.5t-131 -34.5zM387 -14q-65 0 -123.5 18.5t-107 55t-77.5 97t-29 138.5q0 172 127 295.5t322 123.5q99 0 175 -34t115 -85l-130 -126q-72 72 -173 72q-104 0 -171 -69.5t-67 -168.5q0 -71 44.5 -110
t112.5 -39q52 0 93 19l28 94h-135l37 142h321l-100 -353q-121 -70 -262 -70z" />
    <glyph glyph-name="gcommaaccent" unicode="&#x123;" horiz-adv-x="668" 
d="M571 849l-7 -57q-83 -7 -94 -65h68l-37 -136h-161l31 117q19 74 69 106.5t131 34.5zM238 -162q-77 0 -154.5 20.5t-130.5 53.5l85 119q92 -56 192 -56q72 0 112 40q28 29 45 87l3 12q-74 -66 -164 -66q-78 0 -135.5 50.5t-57.5 136.5q0 128 82.5 222.5t201.5 94.5
q109 0 164 -88l20 77h190l-115 -430q-35 -132 -96 -194q-80 -79 -242 -79zM310 185q54 0 91 39.5t37 91.5q0 38 -24.5 62t-65.5 24q-53 0 -89.5 -40.5t-36.5 -93.5q0 -38 24 -60.5t64 -22.5z" />
    <glyph glyph-name="Hbar" unicode="&#x126;" horiz-adv-x="757" 
d="M68 517l28 105h59l21 78h195l-21 -78h246l21 78h195l-21 -78h60l-28 -105h-60l-139 -517h-195l72 266h-247l-71 -266h-195l139 517h-59zM300 438h247l21 81h-246z" />
    <glyph glyph-name="hbar" unicode="&#x127;" horiz-adv-x="632" 
d="M-21 0l158 594h-61l24 90h61l13 46h190l-13 -46h151l-24 -90h-151l-30 -115q70 74 155 74q73 0 115 -43.5t42 -118.5q0 -37 -16 -97l-78 -294h-190l76 283q6 21 6 44q0 57 -60 57q-74 0 -101 -98l-77 -286h-190z" />
    <glyph glyph-name="Imacron" unicode="&#x12a;" horiz-adv-x="325" 
d="M-7 0l188 700h194l-188 -700h-194zM94 755l32 117h398l-32 -117h-398z" />
    <glyph glyph-name="imacron" unicode="&#x12b;" horiz-adv-x="302" 
d="M-17 0l145 541h190l-145 -541h-190zM50 593l31 115h375l-31 -115h-375z" />
    <glyph glyph-name="Ibreve" unicode="&#x12c;" horiz-adv-x="325" 
d="M-7 0l188 700h194l-188 -700h-194zM291 746q-84 0 -126 38.5t-32 112.5h109q6 -45 73 -45q61 0 92 45h119q-29 -74 -90 -112.5t-145 -38.5z" />
    <glyph glyph-name="ibreve" unicode="&#x12d;" horiz-adv-x="302" 
d="M-17 0l145 541h190l-145 -541h-190zM251 586q-86 0 -132 44.5t-45 121.5h113q2 -25 20 -41.5t50 -16.5q66 0 100 58h114q-23 -76 -81.5 -121t-138.5 -45z" />
    <glyph glyph-name="Iogonek" unicode="&#x12e;" horiz-adv-x="325" 
d="M-7 0l188 700h194l-188 -700h-34q-36 -36 -36 -57q0 -26 63 -26l-21 -81q-38 -5 -66 -5q-60 0 -92.5 18.5t-32.5 51.5q0 45 66 99h-41z" />
    <glyph glyph-name="iogonek" unicode="&#x12f;" horiz-adv-x="302" 
d="M-17 0l145 541h190l-145 -541h-32q-36 -36 -36 -57q0 -26 63 -26l-21 -81q-38 -5 -66 -5q-60 0 -92.5 18.5t-32.5 51.5q0 45 66 99h-39zM138 590l38 140h198l-38 -140h-198z" />
    <glyph glyph-name="Idotaccent" unicode="&#x130;" horiz-adv-x="325" 
d="M-7 0l188 700h194l-188 -700h-194zM206 748l38 138h170l-38 -138h-170z" />
    <glyph glyph-name="dotlessi" unicode="&#x131;" horiz-adv-x="301" 
d="M-17 0l145 541h190l-145 -541h-190z" />
    <glyph glyph-name="Kcommaaccent" unicode="&#x136;" horiz-adv-x="723" 
d="M152 -305l7 57q83 7 94 65h-68l37 136h161l-31 -117q-19 -74 -69 -106.5t-131 -34.5zM-12 0l188 700h195l-76 -280l289 280h247l-330 -307l156 -393h-210l-101 270l-121 -111l-42 -159h-195z" />
    <glyph glyph-name="kcommaaccent" unicode="&#x137;" horiz-adv-x="599" 
d="M71 -307l7 57q83 7 94 65h-68l37 136h161l-31 -117q-19 -74 -69 -106.5t-131 -34.5zM-21 0l196 730h190l-96 -357l181 168h229l-249 -222l106 -319h-203l-58 192l-71 -63l-35 -129h-190z" />
    <glyph glyph-name="Lacute" unicode="&#x139;" horiz-adv-x="618" 
d="M223 748l152 162l178 -55l-177 -107h-153zM-12 0l188 700h195l-142 -530h334l-46 -170h-529z" />
    <glyph glyph-name="lacute" unicode="&#x13a;" horiz-adv-x="302" 
d="M209 768l152 162l178 -55l-177 -107h-153zM-17 0l196 730h190l-196 -730h-190z" />
    <glyph glyph-name="Lcommaaccent" unicode="&#x13b;" horiz-adv-x="618" 
d="M85 -307l7 57q83 7 94 65h-68l37 136h161l-31 -117q-19 -74 -69 -106.5t-131 -34.5zM-12 0l188 700h195l-142 -530h334l-46 -170h-529z" />
    <glyph glyph-name="lcommaaccent" unicode="&#x13c;" horiz-adv-x="302" 
d="M-81 -307l7 57q83 7 94 65h-68l37 136h161l-31 -117q-19 -74 -69 -106.5t-131 -34.5zM-17 0l196 730h190l-196 -730h-190z" />
    <glyph glyph-name="Lcaron" unicode="&#x13d;" horiz-adv-x="618" 
d="M365 485l57 215h141l-1 -3l-122 -212h-75zM-12 0l188 700h195l-142 -530h334l-46 -170h-529z" />
    <glyph glyph-name="lcaron" unicode="&#x13e;" horiz-adv-x="302" 
d="M359 515l57 215h141l-1 -3l-122 -212h-75zM-17 0l196 730h190l-196 -730h-190z" />
    <glyph glyph-name="Ldot" unicode="&#x13f;" horiz-adv-x="618" 
d="M410 327l42 155h159l-42 -155h-159zM-12 0l188 700h195l-142 -530h334l-46 -170h-529z" />
    <glyph glyph-name="ldot" unicode="&#x140;" horiz-adv-x="419" 
d="M302 302l41 153h134l-41 -153h-134zM-17 0l196 730h190l-196 -730h-190z" />
    <glyph glyph-name="Lslash" unicode="&#x141;" horiz-adv-x="665" 
d="M36 0l66 245l-83 -22l47 173l82 22l76 282h195l-60 -224l188 52l-46 -173l-189 -52l-35 -133h334l-46 -170h-529z" />
    <glyph glyph-name="lslash" unicode="&#x142;" horiz-adv-x="398" 
d="M395 341l-87 -23l-85 -318h-190l70 263l-87 -23l45 170l88 23l80 297h190l-65 -242l87 24z" />
    <glyph glyph-name="Nacute" unicode="&#x143;" horiz-adv-x="781" 
d="M440 748l152 162l178 -55l-177 -107h-153zM-12 0l188 700h181l181 -389l105 389h193l-188 -700h-170l-189 403l-108 -403h-193z" />
    <glyph glyph-name="nacute" unicode="&#x144;" horiz-adv-x="630" 
d="M326 592l154 184l173 -57l-181 -127h-146zM-21 0l145 541h190l-17 -62q70 74 155 74q73 0 115 -43.5t42 -118.5q0 -37 -16 -97l-78 -294h-190l76 283q6 21 6 44q0 57 -60 57q-74 0 -101 -98l-77 -286h-190z" />
    <glyph glyph-name="Ncommaaccent" unicode="&#x145;" horiz-adv-x="781" 
d="M159 -305l7 57q83 7 94 65h-68l37 136h161l-31 -117q-19 -74 -69 -106.5t-131 -34.5zM-12 0l188 700h181l181 -389l105 389h193l-188 -700h-170l-189 403l-108 -403h-193z" />
    <glyph glyph-name="ncommaaccent" unicode="&#x146;" horiz-adv-x="630" 
d="M82 -307l7 57q83 7 94 65h-68l37 136h161l-31 -117q-19 -74 -69 -106.5t-131 -34.5zM-21 0l145 541h190l-17 -62q70 74 155 74q73 0 115 -43.5t42 -118.5q0 -37 -16 -97l-78 -294h-190l76 283q6 21 6 44q0 57 -60 57q-74 0 -101 -98l-77 -286h-190z" />
    <glyph glyph-name="Ncaron" unicode="&#x147;" horiz-adv-x="781" 
d="M771 897l-163 -149h-169l-83 149h120l64 -53l94 53h137zM-12 0l188 700h181l181 -389l105 389h193l-188 -700h-170l-189 403l-108 -403h-193z" />
    <glyph glyph-name="ncaron" unicode="&#x148;" horiz-adv-x="630" 
d="M627 756l-172 -164h-154l-84 164h114l67 -61l101 61h128zM-21 0l145 541h190l-17 -62q70 74 155 74q73 0 115 -43.5t42 -118.5q0 -37 -16 -97l-78 -294h-190l76 283q6 21 6 44q0 57 -60 57q-74 0 -101 -98l-77 -286h-190z" />
    <glyph glyph-name="Omacron" unicode="&#x14c;" horiz-adv-x="814" 
d="M333 765l32 117h398l-32 -117h-398zM386 -13q-148 0 -241 89.5t-93 224.5q0 79 31.5 154t85.5 132t132.5 91.5t167.5 34.5q148 0 241 -89.5t93 -224.5q0 -79 -31.5 -154t-85.5 -132t-132.5 -91.5t-167.5 -34.5zM403 161q88 0 145 69.5t57 153.5q0 69 -40.5 112t-112.5 43
q-87 0 -144.5 -70t-57.5 -153q0 -69 40.5 -112t112.5 -43z" />
    <glyph glyph-name="omacron" unicode="&#x14d;" horiz-adv-x="644" 
d="M220 597l31 115h375l-31 -115h-375zM295 -13q-121 0 -193 71t-72 181q0 125 92.5 219.5t225.5 94.5q122 0 194 -71t72 -180q0 -126 -92.5 -220.5t-226.5 -94.5zM306 145q54 0 90 46.5t36 103.5q0 45 -26 72.5t-68 27.5q-54 0 -90 -46.5t-36 -102.5q0 -46 26 -73.5
t68 -27.5z" />
    <glyph glyph-name="Obreve" unicode="&#x14e;" horiz-adv-x="814" 
d="M529 756q-84 0 -126 38.5t-32 112.5h109q6 -45 73 -45q61 0 92 45h119q-29 -74 -90 -112.5t-145 -38.5zM386 -13q-148 0 -241 89.5t-93 224.5q0 79 31.5 154t85.5 132t132.5 91.5t167.5 34.5q148 0 241 -89.5t93 -224.5q0 -79 -31.5 -154t-85.5 -132t-132.5 -91.5
t-167.5 -34.5zM403 161q88 0 145 69.5t57 153.5q0 69 -40.5 112t-112.5 43q-87 0 -144.5 -70t-57.5 -153q0 -69 40.5 -112t112.5 -43z" />
    <glyph glyph-name="obreve" unicode="&#x14f;" horiz-adv-x="644" 
d="M295 -13q-121 0 -193 71t-72 181q0 125 92.5 219.5t225.5 94.5q122 0 194 -71t72 -180q0 -126 -92.5 -220.5t-226.5 -94.5zM306 145q54 0 90 46.5t36 103.5q0 45 -26 72.5t-68 27.5q-54 0 -90 -46.5t-36 -102.5q0 -46 26 -73.5t68 -27.5zM422 590q-86 0 -132 44.5
t-45 121.5h113q2 -25 20 -41.5t50 -16.5q66 0 100 58h114q-23 -76 -81.5 -121t-138.5 -45z" />
    <glyph glyph-name="Ohungarumlaut" unicode="&#x150;" horiz-adv-x="814" 
d="M386 -13q-148 0 -241 89.5t-93 224.5q0 79 31.5 154t85.5 132t132.5 91.5t167.5 34.5q148 0 241 -89.5t93 -224.5q0 -79 -31.5 -154t-85.5 -132t-132.5 -91.5t-167.5 -34.5zM403 161q88 0 145 69.5t57 153.5q0 69 -40.5 112t-112.5 43q-87 0 -144.5 -70t-57.5 -153
q0 -69 40.5 -112t112.5 -43zM531 758l88 96l-151 -96h-138l147 162l154 -52l48 52l162 -55l-172 -107h-138z" />
    <glyph glyph-name="ohungarumlaut" unicode="&#x151;" horiz-adv-x="644" 
d="M384 592l145 184l155 -57l-170 -127h-130zM178 592l149 184l153 -56l-172 -128h-130zM295 -13q-121 0 -193 71t-72 181q0 125 92.5 219.5t225.5 94.5q122 0 194 -71t72 -180q0 -126 -92.5 -220.5t-226.5 -94.5zM306 145q54 0 90 46.5t36 103.5q0 45 -26 72.5t-68 27.5
q-54 0 -90 -46.5t-36 -102.5q0 -46 26 -73.5t68 -27.5z" />
    <glyph glyph-name="OE" unicode="&#x152;" horiz-adv-x="1080" 
d="M401 0q-184 0 -276 92q-74 74 -74 203q0 161 115 276q129 129 367 129h614l-44 -165h-349l-28 -106h313l-41 -153h-313l-31 -111h354l-44 -165h-563zM422 172h42l96 356h-49q-129 0 -200 -71q-60 -60 -60 -146q0 -61 35 -96q41 -43 136 -43z" />
    <glyph glyph-name="oe" unicode="&#x153;" horiz-adv-x="1002" 
d="M603 218q7 -89 102 -89q55 0 114 43l88 -104q-91 -81 -224 -81q-123 0 -186 85q-84 -84 -201 -84q-122 0 -194 71.5t-72 182.5q0 124 92 217.5t226 93.5q131 0 196 -90q87 90 212 90q111 0 169 -64.5t58 -159.5q0 -54 -21 -111h-359zM616 315h194q4 12 4 29
q0 30 -19 49.5t-54 19.5q-40 0 -74 -25.5t-51 -72.5zM305 146q55 0 91 45t36 103q0 45 -26 73t-68 28q-54 0 -90 -45.5t-36 -102.5q0 -45 25.5 -73t67.5 -28z" />
    <glyph glyph-name="Racute" unicode="&#x154;" horiz-adv-x="720" 
d="M-12 0l188 700h264q168 0 241 -73q54 -54 54 -143q0 -90 -52.5 -154.5t-157.5 -93.5l108 -236h-214l-93 212h-86l-57 -212h-195zM280 364h111q66 0 105 26t39 71q0 27 -18 47q-24 24 -86 24h-105zM383 748l152 162l178 -55l-177 -107h-153z" />
    <glyph glyph-name="racute" unicode="&#x155;" horiz-adv-x="430" 
d="M228 588l154 184l173 -57l-181 -127h-146zM-21 0l145 541h190l-29 -109q85 126 203 118l-54 -200h-16q-156 0 -205 -187l-44 -163h-190z" />
    <glyph glyph-name="Rcommaaccent" unicode="&#x156;" horiz-adv-x="720" 
d="M127 -305l7 57q83 7 94 65h-68l37 136h161l-31 -117q-19 -74 -69 -106.5t-131 -34.5zM-12 0l188 700h264q168 0 241 -73q54 -54 54 -143q0 -90 -52.5 -154.5t-157.5 -93.5l108 -236h-214l-93 212h-86l-57 -212h-195zM280 364h111q66 0 105 26t39 71q0 27 -18 47
q-24 24 -86 24h-105z" />
    <glyph glyph-name="rcommaaccent" unicode="&#x157;" horiz-adv-x="430" 
d="M-77 -307l7 57q83 7 94 65h-68l37 136h161l-31 -117q-19 -74 -69 -106.5t-131 -34.5zM-21 0l145 541h190l-29 -109q85 126 203 118l-54 -200h-16q-156 0 -205 -187l-44 -163h-190z" />
    <glyph glyph-name="Rcaron" unicode="&#x158;" horiz-adv-x="720" 
d="M713 897l-163 -149h-169l-83 149h120l64 -53l94 53h137zM-12 0l188 700h264q168 0 241 -73q54 -54 54 -143q0 -90 -52.5 -154.5t-157.5 -93.5l108 -236h-214l-93 212h-86l-57 -212h-195zM280 364h111q66 0 105 26t39 71q0 27 -18 47q-24 24 -86 24h-105z" />
    <glyph glyph-name="rcaron" unicode="&#x159;" horiz-adv-x="430" 
d="M529 752l-172 -164h-154l-84 164h114l67 -61l101 61h128zM-21 0l145 541h190l-29 -109q85 126 203 118l-54 -200h-16q-156 0 -205 -187l-44 -163h-190z" />
    <glyph glyph-name="Sacute" unicode="&#x15a;" horiz-adv-x="645" 
d="M302 -12q-206 0 -325 128l125 129q103 -95 216 -95q35 0 57 14t22 38q0 21 -22 36t-95 43q-92 35 -137 78t-45 115q0 104 84 171t213 67q178 0 287 -104l-120 -134q-89 77 -185 77q-34 0 -55 -14t-21 -36q0 -20 21 -33t96 -43q90 -34 136 -78t46 -117q0 -108 -83.5 -175
t-214.5 -67zM359 758l152 162l178 -55l-177 -107h-153z" />
    <glyph glyph-name="sacute" unicode="&#x15b;" horiz-adv-x="511" 
d="M259 592l154 184l173 -57l-181 -127h-146zM230 -13q-77 0 -147.5 25t-119.5 69l94 111q38 -34 87.5 -53.5t92.5 -19.5q48 0 48 33q0 14 -16 24t-58 27q-75 30 -113.5 64.5t-38.5 93.5q0 83 63.5 137.5t172.5 54.5q69 0 131.5 -22t102.5 -54l-91 -114q-78 58 -153 58
q-47 0 -47 -31q0 -13 16 -23.5t59 -27.5q73 -29 112 -63t39 -95q0 -83 -61 -138.5t-173 -55.5z" />
    <glyph glyph-name="Scedilla" unicode="&#x15e;" horiz-adv-x="645" 
d="M201 -173l-139 64l113 112q-123 30 -198 113l125 129q103 -95 216 -95q35 0 57 14t22 38q0 21 -22 36t-95 43q-92 35 -137 78t-45 115q0 104 84 171t213 67q178 0 287 -104l-120 -134q-89 77 -185 77q-34 0 -55 -14t-21 -36q0 -20 21 -33t96 -43q90 -34 136 -78t46 -117
q0 -108 -83.5 -175t-214.5 -67h-2z" />
    <glyph glyph-name="scedilla" unicode="&#x15f;" horiz-adv-x="511" 
d="M141 -173l-139 64l112 111q-90 25 -151 79l94 111q38 -34 87.5 -53.5t92.5 -19.5q48 0 48 33q0 14 -16 24t-58 27q-75 30 -113.5 64.5t-38.5 93.5q0 83 63.5 137.5t172.5 54.5q69 0 131.5 -22t102.5 -54l-91 -114q-78 58 -153 58q-47 0 -47 -31q0 -13 16 -23.5t59 -27.5
q73 -29 112 -63t39 -95q0 -81 -58.5 -136t-166.5 -58z" />
    <glyph glyph-name="Scaron" unicode="&#x160;" horiz-adv-x="645" 
d="M302 -12q-206 0 -325 128l125 129q103 -95 216 -95q35 0 57 14t22 38q0 21 -22 36t-95 43q-92 35 -137 78t-45 115q0 104 84 171t213 67q178 0 287 -104l-120 -134q-89 77 -185 77q-34 0 -55 -14t-21 -36q0 -20 21 -33t96 -43q90 -34 136 -78t46 -117q0 -108 -83.5 -175
t-214.5 -67zM689 907l-163 -149h-169l-83 149h120l64 -53l94 53h137z" />
    <glyph glyph-name="scaron" unicode="&#x161;" horiz-adv-x="511" 
d="M561 756l-172 -164h-154l-84 164h114l67 -61l101 61h128zM230 -13q-77 0 -147.5 25t-119.5 69l94 111q38 -34 87.5 -53.5t92.5 -19.5q48 0 48 33q0 14 -16 24t-58 27q-75 30 -113.5 64.5t-38.5 93.5q0 83 63.5 137.5t172.5 54.5q69 0 131.5 -22t102.5 -54l-91 -114
q-78 58 -153 58q-47 0 -47 -31q0 -13 16 -23.5t59 -27.5q73 -29 112 -63t39 -95q0 -83 -61 -138.5t-173 -55.5z" />
    <glyph glyph-name="Tcommaaccent" unicode="&#x162;" horiz-adv-x="645" 
d="M90 -307l7 57q83 7 94 65h-68l37 136h161l-31 -117q-19 -74 -69 -106.5t-131 -34.5zM151 0l143 530h-210l46 170h613l-45 -170h-210l-142 -530h-195z" />
    <glyph glyph-name="tcommaaccent" unicode="&#x163;" horiz-adv-x="430" 
d="M13 -311l7 57q83 7 94 65h-68l37 136h161l-31 -117q-19 -74 -69 -106.5t-131 -34.5zM214 -11q-81 0 -122.5 33.5t-41.5 94.5q0 28 10 71l54 200h-64l41 153h64l37 137h190l-37 -137h126l-41 -153h-126l-46 -170q-5 -22 -5 -33q0 -34 43 -34q30 0 72 15l-42 -158
q-54 -19 -112 -19z" />
    <glyph glyph-name="Tcaron" unicode="&#x164;" horiz-adv-x="645" 
d="M702 897l-163 -149h-169l-83 149h120l64 -53l94 53h137zM151 0l143 530h-210l46 170h613l-45 -170h-210l-142 -530h-195z" />
    <glyph glyph-name="tcaron" unicode="&#x165;" horiz-adv-x="430" 
d="M402 587l57 215h141l-1 -3l-122 -212h-75zM214 -11q-81 0 -122.5 33.5t-41.5 94.5q0 28 10 71l54 200h-64l41 153h64l37 137h190l-37 -137h126l-41 -153h-126l-46 -170q-5 -22 -5 -33q0 -34 43 -34q30 0 72 15l-42 -158q-54 -19 -112 -19z" />
    <glyph glyph-name="Umacron" unicode="&#x16a;" horiz-adv-x="760" 
d="M309 755l32 117h398l-32 -117h-398zM342 -13q-135 0 -209 64.5t-74 180.5q0 51 16 112l96 356h196l-99 -370q-10 -37 -10 -66q0 -48 28.5 -75t80.5 -27q57 0 94 37q38 36 59 116l104 385h196l-111 -414q-37 -137 -109 -209q-90 -90 -258 -90z" />
    <glyph glyph-name="umacron" unicode="&#x16b;" horiz-adv-x="632" 
d="M183 -12q-73 0 -115 43.5t-42 118.5q0 40 15 97l79 294h190l-76 -283q-7 -24 -7 -44q0 -57 61 -57q75 0 100 98l77 286h190l-144 -541h-190l16 62q-70 -74 -154 -74zM213 593l31 115h375l-31 -115h-375z" />
    <glyph glyph-name="Ubreve" unicode="&#x16c;" horiz-adv-x="760" 
d="M502 737q-84 0 -126 38.5t-32 112.5h109q6 -45 73 -45q61 0 92 45h119q-29 -74 -90 -112.5t-145 -38.5zM342 -13q-135 0 -209 64.5t-74 180.5q0 51 16 112l96 356h196l-99 -370q-10 -37 -10 -66q0 -48 28.5 -75t80.5 -27q57 0 94 37q38 36 59 116l104 385h196l-111 -414
q-37 -137 -109 -209q-90 -90 -258 -90z" />
    <glyph glyph-name="ubreve" unicode="&#x16d;" horiz-adv-x="632" 
d="M183 -12q-73 0 -115 43.5t-42 118.5q0 40 15 97l79 294h190l-76 -283q-7 -24 -7 -44q0 -57 61 -57q75 0 100 98l77 286h190l-144 -541h-190l16 62q-70 -74 -154 -74zM415 586q-86 0 -132 44.5t-45 121.5h113q2 -25 20 -41.5t50 -16.5q66 0 100 58h114q-23 -76 -81.5 -121
t-138.5 -45z" />
    <glyph glyph-name="Uring" unicode="&#x16e;" horiz-adv-x="760" 
d="M342 -13q-135 0 -209 64.5t-74 180.5q0 51 16 112l96 356h196l-99 -370q-10 -37 -10 -66q0 -48 28.5 -75t80.5 -27q57 0 94 37q38 36 59 116l104 385h196l-111 -414q-37 -137 -109 -209q-90 -90 -258 -90zM513 727q-55 0 -91 31.5t-36 77.5q0 59 44.5 100.5t113.5 41.5
q55 0 91 -31.5t36 -77.5q0 -59 -44.5 -100.5t-113.5 -41.5zM520 787q37 0 59.5 23t22.5 51q0 26 -18 41.5t-47 15.5q-37 0 -59.5 -23.5t-22.5 -51.5q0 -25 18 -40.5t47 -15.5z" />
    <glyph glyph-name="uring" unicode="&#x16f;" horiz-adv-x="632" 
d="M414 578q-54 0 -87.5 31.5t-33.5 79.5q0 58 42 100.5t102 42.5q55 0 88 -31.5t33 -79.5q0 -58 -42 -100.5t-102 -42.5zM417 636q32 0 52.5 24t20.5 57q0 26 -15.5 42t-40.5 16q-31 0 -52 -24t-21 -57q0 -26 15.5 -42t40.5 -16zM183 -12q-73 0 -115 43.5t-42 118.5
q0 40 15 97l79 294h190l-76 -283q-7 -24 -7 -44q0 -57 61 -57q75 0 100 98l77 286h190l-144 -541h-190l16 62q-70 -74 -154 -74z" />
    <glyph glyph-name="Uhungarumlaut" unicode="&#x170;" horiz-adv-x="760" 
d="M342 -13q-135 0 -209 64.5t-74 180.5q0 51 16 112l96 356h196l-99 -370q-10 -37 -10 -66q0 -48 28.5 -75t80.5 -27q57 0 94 37q38 36 59 116l104 385h196l-111 -414q-37 -137 -109 -209q-90 -90 -258 -90zM508 748l88 96l-151 -96h-138l147 162l154 -52l48 52l162 -55
l-172 -107h-138z" />
    <glyph glyph-name="uhungarumlaut" unicode="&#x171;" horiz-adv-x="632" 
d="M183 -12q-73 0 -115 43.5t-42 118.5q0 40 15 97l79 294h190l-76 -283q-7 -24 -7 -44q0 -57 61 -57q75 0 100 98l77 286h190l-144 -541h-190l16 62q-70 -74 -154 -74zM378 588l145 184l155 -57l-170 -127h-130zM172 588l149 184l153 -56l-172 -128h-130z" />
    <glyph glyph-name="Uogonek" unicode="&#x172;" horiz-adv-x="760" 
d="M189 -99q0 44 61 95q-92 20 -141.5 81t-49.5 155q0 51 16 112l96 356h196l-99 -370q-10 -37 -10 -66q0 -48 28.5 -75t80.5 -27q57 0 94 37q38 36 59 116l104 385h196l-111 -414q-37 -137 -109 -209q-84 -84 -238 -89q-24 -27 -24 -45q0 -26 63 -26l-21 -81q-38 -5 -66 -5
q-60 0 -92.5 18.5t-32.5 51.5z" />
    <glyph glyph-name="uogonek" unicode="&#x173;" horiz-adv-x="632" 
d="M183 -12q-73 0 -115 43.5t-42 118.5q0 40 15 97l79 294h190l-76 -283q-7 -24 -7 -44q0 -57 61 -57q75 0 100 98l77 286h190l-144 -541h-31q-36 -36 -36 -57q0 -26 63 -26l-21 -81q-38 -5 -66 -5q-60 0 -92.5 18.5t-32.5 51.5q0 46 66 99h-40l16 62q-70 -74 -154 -74z" />
    <glyph glyph-name="Wcircumflex" unicode="&#x174;" horiz-adv-x="1102" 
d="M162 -5l-45 705h201l13 -405l242 407h168l27 -407l230 405h211l-423 -705h-174l-32 398l-245 -398h-173zM455 748l163 149h169l83 -149h-120l-64 53l-94 -53h-137z" />
    <glyph glyph-name="wcircumflex" unicode="&#x175;" horiz-adv-x="859" 
d="M302 588l172 164h154l84 -164h-113l-68 61l-100 -61h-129zM103 -4l-19 545h183l-2 -272l157 274h156l11 -276l146 274h185l-313 -545h-162l-13 281l-165 -281h-164z" />
    <glyph glyph-name="Ycircumflex" unicode="&#x176;" horiz-adv-x="677" 
d="M159 0l73 271l-141 429h209l69 -262l211 262h232l-391 -450l-67 -250h-195zM236 748l163 149h169l83 -149h-120l-64 53l-94 -53h-137z" />
    <glyph glyph-name="ycircumflex" unicode="&#x177;" horiz-adv-x="622" 
d="M94 -163q-84 0 -144 39l85 139q37 -27 75 -27q27 0 47 20l-70 533h193l22 -325l182 325h200l-335 -538q-58 -91 -116.5 -128.5t-138.5 -37.5zM179 588l172 164h154l84 -164h-113l-68 61l-100 -61h-129z" />
    <glyph glyph-name="Ydieresis" unicode="&#x178;" horiz-adv-x="677" 
d="M159 0l73 271l-141 429h209l69 -262l211 262h232l-391 -450l-67 -250h-195zM481 748l38 138h165l-38 -138h-165zM260 748l38 138h165l-38 -138h-165z" />
    <glyph glyph-name="Zacute" unicode="&#x179;" horiz-adv-x="681" 
d="M-36 0l37 141l446 395h-328l45 164h595l-38 -141l-446 -395h341l-44 -164h-608zM378 748l152 162l178 -55l-177 -107h-153z" />
    <glyph glyph-name="zacute" unicode="&#x17a;" horiz-adv-x="558" 
d="M280 588l154 184l173 -57l-181 -127h-146zM-40 0l34 125l318 265h-238l40 151h486l-33 -125l-319 -265h249l-40 -151h-497z" />
    <glyph glyph-name="Zdotaccent" unicode="&#x17b;" horiz-adv-x="681" 
d="M371 748l38 138h170l-38 -138h-170zM-36 0l37 141l446 395h-328l45 164h595l-38 -141l-446 -395h341l-44 -164h-608z" />
    <glyph glyph-name="zdotaccent" unicode="&#x17c;" horiz-adv-x="558" 
d="M-40 0l34 125l318 265h-238l40 151h486l-33 -125l-319 -265h249l-40 -151h-497zM270 588l39 142h169l-39 -142h-169z" />
    <glyph glyph-name="Zcaron" unicode="&#x17d;" horiz-adv-x="681" 
d="M709 897l-163 -149h-169l-83 149h120l64 -53l94 53h137zM-36 0l37 141l446 395h-328l45 164h595l-38 -141l-446 -395h341l-44 -164h-608z" />
    <glyph glyph-name="zcaron" unicode="&#x17e;" horiz-adv-x="558" 
d="M582 752l-172 -164h-154l-84 164h114l67 -61l101 61h128zM-40 0l34 125l318 265h-238l40 151h486l-33 -125l-319 -265h249l-40 -151h-497z" />
    <glyph glyph-name="florin" unicode="&#x192;" horiz-adv-x="559" 
d="M55 -12q-51 0 -99 10l32 139q27 -7 50 -7q51 0 82 70l58 129h-63l33 144h94l35 76q37 85 96 124t149 39q72 0 120 -16l-32 -140q-33 12 -70 12q-65 0 -93 -66l-13 -29h117l-32 -144h-149l-78 -174q-40 -91 -96.5 -129t-140.5 -38z" />
    <glyph glyph-name="Aringacute" unicode="&#x1fa;" horiz-adv-x="775" 
d="M-74 0l463 670q-15 24 -15 54q0 59 44.5 100.5t113.5 41.5q55 0 91 -31.5t36 -77.5q0 -61 -48 -104l101 -653h-204l-17 126h-270l-84 -126h-211zM475 891l157 152l171 -57l-183 -95h-145zM319 277h157l-26 200zM508 675q37 0 59.5 23.5t22.5 51.5q0 25 -18 40.5t-47 15.5
q-37 0 -59.5 -23t-22.5 -51q0 -26 18 -41.5t47 -15.5z" />
    <glyph glyph-name="aringacute" unicode="&#x1fb;" horiz-adv-x="597" 
d="M381 880l156 160l168 -56l-180 -104h-144zM152 -11q-67 0 -109 40t-42 107q0 88 65 139.5t173 51.5q68 0 137 -21l2 7q5 22 5 33q0 58 -93 58q-78 0 -146 -27l-27 138q94 33 213 33q120 0 180.5 -45t60.5 -127q0 -36 -11 -78l-80 -298h-187l15 58q-74 -69 -156 -69z
M240 106q36 0 68 28t43 70l5 18q-36 12 -71 12q-45 0 -72 -21t-27 -57q0 -23 15 -36.5t39 -13.5zM404 593q-54 0 -87.5 31.5t-33.5 79.5q0 58 42 100.5t102 42.5q55 0 88 -31.5t33 -79.5q0 -58 -42 -100.5t-102 -42.5zM407 651q32 0 52.5 24t20.5 57q0 26 -15.5 42t-40.5 16
q-31 0 -52 -24t-21 -57q0 -26 15.5 -42t40.5 -16z" />
    <glyph glyph-name="AEacute" unicode="&#x1fc;" horiz-adv-x="1080" 
d="M640 748l152 162l178 -55l-177 -107h-153zM-76 0l550 700h673l-44 -165h-349l-28 -106h313l-41 -153h-313l-31 -111h354l-44 -165h-543l34 125h-223l-97 -125h-211zM348 276h148l71 268h-13z" />
    <glyph glyph-name="aeacute" unicode="&#x1fd;" horiz-adv-x="932" 
d="M459 588l154 184l173 -57l-181 -127h-146zM407 85q-97 -96 -233 -96q-80 0 -126.5 39.5t-46.5 107.5q0 88 65 139.5t173 51.5q68 0 137 -21l2 7q5 22 5 33q0 58 -93 58q-78 0 -146 -27l-27 138q94 33 213 33q124 0 176 -64q84 69 185 69q108 0 165 -64.5t57 -159.5
q0 -54 -21 -111h-359q7 -89 101 -89q56 0 115 43l88 -104q-91 -81 -224 -81q-138 0 -206 98zM546 315h193q5 15 5 29q0 30 -19 49.5t-55 19.5q-40 0 -73.5 -25.5t-50.5 -72.5zM364 218q-37 16 -79 16q-45 0 -72 -21t-27 -57q0 -23 17 -37t47 -14q66 0 123 54q-7 27 -9 59z
" />
    <glyph glyph-name="Oslashacute" unicode="&#x1fe;" horiz-adv-x="814" 
d="M386 -13q-126 0 -212 66l-63 -58h-147l141 128q-53 78 -53 178q0 79 31.5 154t85.5 132t132.5 91.5t167.5 34.5q128 0 219 -70l68 62h147l-149 -135q49 -74 49 -171q0 -79 -31.5 -154t-85.5 -132t-132.5 -91.5t-167.5 -34.5zM255 253l292 265q-38 27 -95 27
q-89 0 -148 -72t-59 -158q0 -35 10 -62zM403 155q89 0 148.5 72t59.5 158q0 27 -8 53l-287 -262q39 -21 87 -21zM442 758l152 162l178 -55l-177 -107h-153z" />
    <glyph glyph-name="oslashacute" unicode="&#x1ff;" horiz-adv-x="644" 
d="M295 -12q-100 0 -169 51l-49 -44h-133l122 109q-36 58 -36 138q0 123 92.5 217t225.5 94q103 0 172 -52l50 45h133l-124 -111q35 -58 35 -136q0 -123 -93 -217t-226 -94zM206 219l189 169q-22 14 -55 14q-58 0 -97 -48.5t-39 -108.5q0 -8 2 -26zM304 138q58 0 97 49
t39 109q0 9 -2 23l-187 -168q24 -13 53 -13zM323 592l154 184l173 -57l-181 -127h-146z" />
    <glyph glyph-name="Scommaaccent" unicode="&#x218;" horiz-adv-x="645" 
d="M91 -314l7 57q83 7 94 65h-68l37 136h161l-31 -117q-19 -74 -69 -106.5t-131 -34.5zM302 -12q-206 0 -325 128l125 129q103 -95 216 -95q35 0 57 14t22 38q0 21 -22 36t-95 43q-92 35 -137 78t-45 115q0 104 84 171t213 67q178 0 287 -104l-120 -134q-89 77 -185 77
q-34 0 -55 -14t-21 -36q0 -20 21 -33t96 -43q90 -34 136 -78t46 -117q0 -108 -83.5 -175t-214.5 -67z" />
    <glyph glyph-name="scommaaccent" unicode="&#x219;" horiz-adv-x="511" 
d="M23 -311l7 57q83 7 94 65h-68l37 136h161l-31 -117q-19 -74 -69 -106.5t-131 -34.5zM230 -13q-77 0 -147.5 25t-119.5 69l94 111q38 -34 87.5 -53.5t92.5 -19.5q48 0 48 33q0 14 -16 24t-58 27q-75 30 -113.5 64.5t-38.5 93.5q0 83 63.5 137.5t172.5 54.5q69 0 131.5 -22
t102.5 -54l-91 -114q-78 58 -153 58q-47 0 -47 -31q0 -13 16 -23.5t59 -27.5q73 -29 112 -63t39 -95q0 -83 -61 -138.5t-173 -55.5z" />
    <glyph glyph-name="schwa" unicode="&#x259;" horiz-adv-x="602" 
d="M398 323q-7 89 -101 89q-56 0 -115 -43l-88 104q93 81 221 81q119 0 188.5 -65t69.5 -175q0 -127 -91 -226.5t-234 -99.5q-113 0 -171.5 64.5t-58.5 159.5q0 54 21 111h359zM385 226h-193q-5 -15 -5 -29q0 -30 19 -49.5t55 -19.5q40 0 73.5 25.5t50.5 72.5z" />
    <glyph glyph-name="circumflex" unicode="&#x2c6;" 
d="M130 588l172 164h154l84 -164h-113l-68 61l-100 -61h-129z" />
    <glyph glyph-name="caron" unicode="&#x2c7;" 
d="M582 752l-172 -164h-154l-84 164h114l67 -61l101 61h128z" />
    <glyph glyph-name="breve" unicode="&#x2d8;" 
d="M357 586q-86 0 -132 44.5t-45 121.5h113q2 -25 20 -41.5t50 -16.5q66 0 100 58h114q-23 -76 -81.5 -121t-138.5 -45z" />
    <glyph glyph-name="dotaccent" unicode="&#x2d9;" 
d="M251 588l39 142h169l-39 -142h-169z" />
    <glyph glyph-name="ring" unicode="&#x2da;" 
d="M357 589q-54 0 -87.5 31.5t-33.5 79.5q0 58 42 100.5t102 42.5q55 0 88 -31.5t33 -79.5q0 -58 -42 -100.5t-102 -42.5zM360 647q32 0 52.5 24t20.5 57q0 26 -15.5 42t-40.5 16q-31 0 -52 -24t-21 -57q0 -26 15.5 -42t40.5 -16z" />
    <glyph glyph-name="ogonek" unicode="&#x2db;" 
d="M70 -99q0 48 79 109h117q-47 -46 -47 -67q0 -26 63 -26l-21 -81q-38 -5 -66 -5q-60 0 -92.5 18.5t-32.5 51.5z" />
    <glyph glyph-name="tilde" unicode="&#x2dc;" 
d="M225 580l-92 28q30 77 63 111.5t82 34.5q33 0 84.5 -19.5t64.5 -19.5q20 0 32 10.5t28 35.5l91 -27q-30 -77 -62.5 -111.5t-82.5 -34.5q-33 0 -84.5 19.5t-64.5 19.5q-20 0 -32 -10.5t-27 -36.5z" />
    <glyph glyph-name="hungarumlaut" unicode="&#x2dd;" 
d="M317 588l145 184l155 -57l-170 -127h-130zM111 588l149 184l153 -56l-172 -128h-130z" />
    <glyph glyph-name="commaaccent" unicode="&#x326;" 
d="M18 -307l7 57q83 7 94 65h-68l37 136h161l-31 -117q-19 -74 -69 -106.5t-131 -34.5z" />
    <glyph glyph-name="Wgrave" unicode="&#x1e80;" horiz-adv-x="1102" 
d="M663 910l65 -162h-130l-119 107zM162 -5l-45 705h201l13 -405l242 407h168l27 -407l230 405h211l-423 -705h-174l-32 398l-245 -398h-173z" />
    <glyph glyph-name="wgrave" unicode="&#x1e81;" horiz-adv-x="859" 
d="M103 -4l-19 545h183l-2 -272l157 274h156l11 -276l146 274h185l-313 -545h-162l-13 281l-165 -281h-164zM449 588l-112 127l179 57l55 -184h-122z" />
    <glyph glyph-name="Wacute" unicode="&#x1e82;" horiz-adv-x="1102" 
d="M594 748l152 162l178 -55l-177 -107h-153zM162 -5l-45 705h201l13 -405l242 407h168l27 -407l230 405h211l-423 -705h-174l-32 398l-245 -398h-173z" />
    <glyph glyph-name="wacute" unicode="&#x1e83;" horiz-adv-x="859" 
d="M440 588l154 184l173 -57l-181 -127h-146zM103 -4l-19 545h183l-2 -272l157 274h156l11 -276l146 274h185l-313 -545h-162l-13 281l-165 -281h-164z" />
    <glyph glyph-name="Wdieresis" unicode="&#x1e84;" horiz-adv-x="1102" 
d="M700 748l38 138h165l-38 -138h-165zM479 748l38 138h165l-38 -138h-165zM162 -5l-45 705h201l13 -405l242 407h168l27 -407l230 405h211l-423 -705h-174l-32 398l-245 -398h-173z" />
    <glyph glyph-name="wdieresis" unicode="&#x1e85;" horiz-adv-x="859" 
d="M542 588l39 142h165l-39 -142h-165zM323 588l39 142h165l-39 -142h-165zM103 -4l-19 545h183l-2 -272l157 274h156l11 -276l146 274h185l-313 -545h-162l-13 281l-165 -281h-164z" />
    <glyph glyph-name="Ygrave" unicode="&#x1ef2;" horiz-adv-x="677" 
d="M159 0l73 271l-141 429h209l69 -262l211 262h232l-391 -450l-67 -250h-195zM443 910l65 -162h-130l-119 107z" />
    <glyph glyph-name="ygrave" unicode="&#x1ef3;" horiz-adv-x="622" 
d="M94 -163q-84 0 -144 39l85 139q37 -27 75 -27q27 0 47 20l-70 533h193l22 -325l182 325h200l-335 -538q-58 -91 -116.5 -128.5t-138.5 -37.5zM327 588l-112 127l179 57l55 -184h-122z" />
    <glyph glyph-name="enspace" unicode="&#x2002;" 
 />
    <glyph glyph-name="emspace" unicode="&#x2003;" horiz-adv-x="1000" 
 />
    <glyph glyph-name="threeperemspace" unicode="&#x2004;" horiz-adv-x="333" 
 />
    <glyph glyph-name="fourperemspace" unicode="&#x2005;" horiz-adv-x="250" 
 />
    <glyph glyph-name="thinspace" unicode="&#x2009;" horiz-adv-x="133" 
 />
    <glyph glyph-name="hairspace" unicode="&#x200a;" horiz-adv-x="75" 
 />
    <glyph glyph-name="endash" unicode="&#x2013;" horiz-adv-x="526" 
d="M33 231l44 163h438l-44 -163h-438z" />
    <glyph glyph-name="emdash" unicode="&#x2014;" horiz-adv-x="896" 
d="M33 231l44 163h808l-44 -163h-808z" />
    <glyph glyph-name="quoteleft" unicode="&#x2018;" horiz-adv-x="302" 
d="M63 344l45 169q26 98 83.5 143.5t167.5 50.5l8 -74q-113 -11 -131 -94h77l-53 -195h-197z" />
    <glyph glyph-name="quoteright" unicode="&#x2019;" horiz-adv-x="302" 
d="M66 338l-8 73q113 11 131 94h-77l53 195h197l-45 -169q-26 -97 -83.5 -143t-167.5 -50z" />
    <glyph glyph-name="quotesinglbase" unicode="&#x201a;" horiz-adv-x="302" 
d="M-66 -167l-8 73q112 11 130 94h-76l52 195h198l-45 -168q-27 -98 -84 -144t-167 -50z" />
    <glyph glyph-name="quotedblleft" unicode="&#x201c;" horiz-adv-x="565" 
d="M330 343l45 169q26 98 82 143.5t166 50.5l8 -74q-110 -11 -128 -94h74l-52 -195h-195zM64 343l45 169q26 98 82 143.5t166 50.5l8 -74q-110 -11 -128 -94h74l-52 -195h-195z" />
    <glyph glyph-name="quotedblright" unicode="&#x201d;" horiz-adv-x="565" 
d="M333 338l-8 73q110 11 128 94h-74l52 195h195l-45 -169q-26 -98 -82.5 -143.5t-165.5 -49.5zM67 338l-8 73q110 11 128 94h-74l52 195h195l-45 -169q-26 -98 -82.5 -143.5t-165.5 -49.5z" />
    <glyph glyph-name="quotedblbase" unicode="&#x201e;" horiz-adv-x="565" 
d="M200 -167l-8 73q110 11 128 94h-74l52 195h195l-45 -168q-26 -98 -82.5 -144t-165.5 -50zM-66 -167l-8 73q110 11 128 94h-74l52 195h195l-45 -168q-26 -98 -82.5 -144t-165.5 -50z" />
    <glyph glyph-name="dagger" unicode="&#x2020;" horiz-adv-x="412" 
d="M143 223l83 270l-129 -13l28 104l121 -13l19 129h112l-50 -129l128 13l-28 -104l-122 13l-62 -270h-100z" />
    <glyph glyph-name="daggerdbl" unicode="&#x2021;" horiz-adv-x="422" 
d="M82 0l50 129l-127 -13l27 104l122 -13l26 143l51 143l-129 -13l28 104l121 -13l19 129h112l-50 -129l127 13l-28 -104l-121 13l-26 -143l-52 -143l130 13l-28 -104l-121 13l-19 -129h-112z" />
    <glyph glyph-name="bullet" unicode="&#x2022;" horiz-adv-x="501" 
d="M246 180q-63 0 -98.5 37t-35.5 97q0 81 53 146t134 65q62 0 98 -37t36 -97q0 -81 -53.5 -146t-133.5 -65z" />
    <glyph glyph-name="ellipsis" unicode="&#x2026;" horiz-adv-x="858" 
d="M540 0l51 192h195l-52 -192h-194zM260 0l51 192h195l-52 -192h-194zM-20 0l51 192h195l-52 -192h-194z" />
    <glyph glyph-name="perthousand" unicode="&#x2030;" horiz-adv-x="1348" 
d="M247 330q-78 0 -123 45.5t-45 117.5q0 85 57.5 151t145.5 66q78 0 122.5 -45.5t44.5 -117.5q0 -85 -57.5 -151t-144.5 -66zM68 0l689 700h141l-690 -700h-140zM1109 -10q-78 0 -122.5 45.5t-44.5 117.5q0 85 57.5 151t144.5 66q78 0 122.5 -45.5t44.5 -117.5
q0 -85 -57.5 -151t-144.5 -66zM683 -10q-78 0 -122.5 45.5t-44.5 117.5q0 85 57.5 151t145.5 66q78 0 122.5 -45.5t44.5 -117.5q0 -85 -57.5 -151t-145.5 -66zM252 435q35 0 58 33t23 74q0 28 -15 45.5t-41 17.5q-35 0 -58 -33t-23 -74q0 -28 15 -45.5t41 -17.5zM1114 95
q35 0 58 33t23 74q0 28 -15 45.5t-41 17.5q-35 0 -58 -33t-23 -74q0 -28 15 -45.5t41 -17.5zM688 95q36 0 59 33t23 74q0 28 -15.5 45.5t-40.5 17.5q-36 0 -59 -33t-23 -74q0 -28 15.5 -45.5t40.5 -17.5z" />
    <glyph glyph-name="guilsinglleft" unicode="&#x2039;" horiz-adv-x="357" 
d="M133 25l-105 219l13 49l218 214l104 -96l-168 -163l79 -160z" />
    <glyph glyph-name="guilsinglright" unicode="&#x203a;" horiz-adv-x="357" 
d="M96 25l-105 96l168 164l-79 160l141 62l106 -219l-14 -48z" />
    <glyph glyph-name="fraction" unicode="&#x2044;" horiz-adv-x="546" 
d="M-140 -98l694 856h159l-695 -856h-158z" />
    <glyph glyph-name="Euro" unicode="&#x20ac;" horiz-adv-x="677" 
d="M385 -14q-114 0 -189.5 64.5t-86.5 172.5h-90l28 104h67q6 34 11 50h-65l28 104h65q45 106 131 169.5t205 63.5q178 0 246 -147l-142 -95q-40 75 -119 75q-77 0 -123 -68h169l-27 -101h-180q-8 -26 -12 -52h178l-27 -101h-154q16 -72 95 -72q67 0 126 59l111 -119
q-101 -107 -245 -107z" />
    <glyph glyph-name="published" unicode="&#x2117;" horiz-adv-x="830" 
d="M437 -14q-151 0 -256 106.5t-105 255.5v2q0 149 106 256.5t257 107.5t256 -106.5t105 -255.5v-2q0 -149 -106 -256.5t-257 -107.5zM437 26q136 0 228.5 95t92.5 229v2q0 134 -92 228t-227 94q-136 0 -228.5 -95t-92.5 -229v-2q0 -134 92 -228t227 -94zM295 164v385h166
q74 0 117 -36t43 -100v-2q0 -65 -45.5 -101t-119.5 -36h-53v-110h-108zM403 358h50q28 0 44.5 13.5t16.5 35.5v2q0 50 -62 50h-49v-101z" />
    <glyph glyph-name="servicemark" unicode="&#x2120;" horiz-adv-x="702" 
d="M206 386q-86 0 -143 57l54 55q46 -43 98 -43q17 0 27 7t10 18t-10 17.5t-43 19.5q-44 17 -62.5 35.5t-18.5 49.5q0 45 36.5 74.5t94.5 29.5q77 0 126 -46l-51 -57q-38 35 -84 35q-37 0 -37 -24q0 -10 9.5 -16t44.5 -20q42 -16 61.5 -35t19.5 -50q0 -48 -36.5 -77.5
t-95.5 -29.5zM364 392l82 308h87l41 -119l105 119h95l-82 -308h-85l48 180l-111 -122h-3l-45 122l-48 -180h-84z" />
    <glyph glyph-name="trademark" unicode="&#x2122;" horiz-adv-x="695" 
d="M357 392l82 308h87l41 -119l105 119h95l-82 -308h-85l48 180l-111 -122h-3l-45 122l-48 -180h-84zM130 392l63 233h-92l20 75h270l-20 -75h-92l-62 -233h-87z" />
    <glyph glyph-name="minus" unicode="&#x2212;" horiz-adv-x="640" 
d="M582 268h-525l45 168h525z" />
    <glyph glyph-name="Q.alt" horiz-adv-x="813" 
d="M603 -45l-45 69q-80 -37 -172 -37q-148 0 -241 89.5t-93 224.5q0 79 31.5 154t85.5 132t132.5 91.5t167.5 34.5q148 0 241 -89.5t93 -224.5q0 -160 -115 -281l53 -72zM402 157q23 0 50 9l-77 104l139 92l60 -94q31 54 31 114q0 70 -40.5 113.5t-112.5 43.5
q-88 0 -145.5 -70t-57.5 -155q0 -70 40.5 -113.5t112.5 -43.5z" />
    <glyph glyph-name="a.alt" horiz-adv-x="673" 
d="M220 -12q-83 0 -137.5 60t-54.5 162q0 144 86.5 243.5t204.5 99.5q108 0 164 -86l20 74h190l-145 -541h-190l16 57q-72 -69 -154 -69zM312 145q54 0 94 46t40 108q0 43 -26 69.5t-68 26.5q-54 0 -93 -45.5t-39 -109.5q0 -43 25.5 -69t66.5 -26z" />
    <glyph glyph-name="aacute.alt" horiz-adv-x="673" 
d="M351 592l154 184l173 -57l-181 -127h-146zM220 -12q-83 0 -137.5 60t-54.5 162q0 144 86.5 243.5t204.5 99.5q108 0 164 -86l20 74h190l-145 -541h-190l16 57q-72 -69 -154 -69zM312 145q54 0 94 46t40 108q0 43 -26 69.5t-68 26.5q-54 0 -93 -45.5t-39 -109.5
q0 -43 25.5 -69t66.5 -26z" />
    <glyph glyph-name="abreve.alt" horiz-adv-x="673" 
d="M220 -12q-83 0 -137.5 60t-54.5 162q0 144 86.5 243.5t204.5 99.5q108 0 164 -86l20 74h190l-145 -541h-190l16 57q-72 -69 -154 -69zM312 145q54 0 94 46t40 108q0 43 -26 69.5t-68 26.5q-54 0 -93 -45.5t-39 -109.5q0 -43 25.5 -69t66.5 -26zM441 590q-86 0 -132 44.5
t-45 121.5h113q2 -25 20 -41.5t50 -16.5q66 0 100 58h114q-23 -76 -81.5 -121t-138.5 -45z" />
    <glyph glyph-name="acircumflex.alt" horiz-adv-x="673" 
d="M213 592l172 164h154l84 -164h-113l-68 61l-100 -61h-129zM220 -12q-83 0 -137.5 60t-54.5 162q0 144 86.5 243.5t204.5 99.5q108 0 164 -86l20 74h190l-145 -541h-190l16 57q-72 -69 -154 -69zM312 145q54 0 94 46t40 108q0 43 -26 69.5t-68 26.5q-54 0 -93 -45.5
t-39 -109.5q0 -43 25.5 -69t66.5 -26z" />
    <glyph glyph-name="adieresis.alt" horiz-adv-x="673" 
d="M453 592l39 142h165l-39 -142h-165zM234 592l39 142h165l-39 -142h-165zM220 -12q-83 0 -137.5 60t-54.5 162q0 144 86.5 243.5t204.5 99.5q108 0 164 -86l20 74h190l-145 -541h-190l16 57q-72 -69 -154 -69zM312 145q54 0 94 46t40 108q0 43 -26 69.5t-68 26.5
q-54 0 -93 -45.5t-39 -109.5q0 -43 25.5 -69t66.5 -26z" />
    <glyph glyph-name="agrave.alt" horiz-adv-x="673" 
d="M220 -12q-83 0 -137.5 60t-54.5 162q0 144 86.5 243.5t204.5 99.5q108 0 164 -86l20 74h190l-145 -541h-190l16 57q-72 -69 -154 -69zM312 145q54 0 94 46t40 108q0 43 -26 69.5t-68 26.5q-54 0 -93 -45.5t-39 -109.5q0 -43 25.5 -69t66.5 -26zM360 592l-112 127l179 57
l55 -184h-122z" />
    <glyph glyph-name="amacron.alt" horiz-adv-x="673" 
d="M220 -12q-83 0 -137.5 60t-54.5 162q0 144 86.5 243.5t204.5 99.5q108 0 164 -86l20 74h190l-145 -541h-190l16 57q-72 -69 -154 -69zM312 145q54 0 94 46t40 108q0 43 -26 69.5t-68 26.5q-54 0 -93 -45.5t-39 -109.5q0 -43 25.5 -69t66.5 -26zM239 597l31 115h375
l-31 -115h-375z" />
    <glyph glyph-name="aogonek.alt" horiz-adv-x="673" 
d="M332 -99q0 46 66 99h-40l16 57q-72 -69 -154 -69q-83 0 -137.5 60t-54.5 162q0 144 86.5 243.5t204.5 99.5q108 0 164 -86l20 74h190l-145 -541h-31q-36 -36 -36 -57q0 -26 63 -26l-21 -81q-38 -5 -66 -5q-60 0 -92.5 18.5t-32.5 51.5zM312 145q54 0 94 46t40 108
q0 43 -26 69.5t-68 26.5q-54 0 -93 -45.5t-39 -109.5q0 -43 25.5 -69t66.5 -26z" />
    <glyph glyph-name="aring.alt" horiz-adv-x="673" 
d="M448 593q-54 0 -87.5 31.5t-33.5 79.5q0 58 42 100.5t102 42.5q55 0 88 -31.5t33 -79.5q0 -58 -42 -100.5t-102 -42.5zM451 651q32 0 52.5 24t20.5 57q0 26 -15.5 42t-40.5 16q-31 0 -52 -24t-21 -57q0 -26 15.5 -42t40.5 -16zM220 -12q-83 0 -137.5 60t-54.5 162
q0 144 86.5 243.5t204.5 99.5q108 0 164 -86l20 74h190l-145 -541h-190l16 57q-72 -69 -154 -69zM312 145q54 0 94 46t40 108q0 43 -26 69.5t-68 26.5q-54 0 -93 -45.5t-39 -109.5q0 -43 25.5 -69t66.5 -26z" />
    <glyph glyph-name="aring.alt2" horiz-adv-x="597" 
d="M470 525q101 -42 101 -149q0 -36 -11 -78l-80 -298h-187l15 58q-74 -69 -156 -69q-67 0 -109 40t-42 107q0 88 65 139.5t173 51.5q68 0 137 -21l2 7q5 22 5 33q0 58 -93 58q-78 0 -146 -27l-27 138q70 25 163 31q-18 26 -18 60q0 55 42 97t102 42q54 0 87.5 -31.5
t33.5 -79.5q0 -70 -57 -109zM386 548q31 0 52 24t21 57q0 26 -15.5 42t-40.5 16q-32 0 -52.5 -24t-20.5 -57q0 -26 15.5 -42t40.5 -16zM240 106q36 0 68 28t43 70l5 18q-36 12 -71 12q-45 0 -72 -21t-27 -57q0 -23 15 -36.5t39 -13.5z" />
    <glyph glyph-name="aringacute.alt" horiz-adv-x="673" 
d="M425 880l156 160l168 -56l-180 -104h-144zM448 593q-54 0 -87.5 31.5t-33.5 79.5q0 58 42 100.5t102 42.5q55 0 88 -31.5t33 -79.5q0 -58 -42 -100.5t-102 -42.5zM451 651q32 0 52.5 24t20.5 57q0 26 -15.5 42t-40.5 16q-31 0 -52 -24t-21 -57q0 -26 15.5 -42t40.5 -16z
M220 -12q-83 0 -137.5 60t-54.5 162q0 144 86.5 243.5t204.5 99.5q108 0 164 -86l20 74h190l-145 -541h-190l16 57q-72 -69 -154 -69zM312 145q54 0 94 46t40 108q0 43 -26 69.5t-68 26.5q-54 0 -93 -45.5t-39 -109.5q0 -43 25.5 -69t66.5 -26z" />
    <glyph glyph-name="aringacute.alt2" horiz-adv-x="597" 
d="M359 778l156 159l168 -56l-180 -103h-144zM470 525q101 -42 101 -149q0 -36 -11 -78l-80 -298h-187l15 58q-74 -69 -156 -69q-67 0 -109 40t-42 107q0 88 65 139.5t173 51.5q68 0 137 -21l2 7q5 22 5 33q0 58 -93 58q-78 0 -146 -27l-27 138q70 25 163 31q-18 26 -18 60
q0 55 42 97t102 42q54 0 87.5 -31.5t33.5 -79.5q0 -70 -57 -109zM386 548q31 0 52 24t21 57q0 26 -15.5 42t-40.5 16q-32 0 -52.5 -24t-20.5 -57q0 -26 15.5 -42t40.5 -16zM240 106q36 0 68 28t43 70l5 18q-36 12 -71 12q-45 0 -72 -21t-27 -57q0 -23 15 -36.5t39 -13.5z
" />
    <glyph glyph-name="atilde.alt" horiz-adv-x="673" 
d="M220 -12q-83 0 -137.5 60t-54.5 162q0 144 86.5 243.5t204.5 99.5q108 0 164 -86l20 74h190l-145 -541h-190l16 57q-72 -69 -154 -69zM312 145q54 0 94 46t40 108q0 43 -26 69.5t-68 26.5q-54 0 -93 -45.5t-39 -109.5q0 -43 25.5 -69t66.5 -26zM310 584l-92 28
q30 77 63 111.5t82 34.5q33 0 85 -19.5t64 -19.5q20 0 32 10.5t28 35.5l91 -27q-30 -77 -62.5 -111.5t-82.5 -34.5q-33 0 -84.5 19.5t-64.5 19.5q-20 0 -32 -10.5t-27 -36.5z" />
    <glyph glyph-name="three.alt" horiz-adv-x="624" 
d="M265 -14q-197 0 -287 133l129 112q67 -81 160 -81q49 0 78 22.5t29 52.5q0 55 -87 55h-72l39 146h68q50 0 80 18.5t30 51.5q0 24 -20.5 39t-50.5 15q-72 0 -154 -68l-99 122q115 110 277 110q111 0 176.5 -53t65.5 -128q0 -139 -163 -184q104 -38 104 -141
q0 -97 -85.5 -159.5t-217.5 -62.5z" />
    <glyph glyph-name="registered.alt" horiz-adv-x="830" 
d="M437 -14q-151 0 -256 106.5t-105 255.5v2q0 149 106 256.5t257 107.5t256 -106.5t105 -255.5v-2q0 -149 -106 -256.5t-257 -107.5zM437 27q136 0 228.5 94.5t92.5 228.5v2q0 134 -92 228t-227 94q-136 0 -228.5 -95t-92.5 -229v-2q0 -134 92 -227.5t227 -93.5zM279 168
v385h179q86 0 129 -43q34 -34 34 -88v-2q0 -84 -80 -117l92 -135h-122l-78 117h-47v-117h-107zM386 368h70q27 0 42.5 12.5t15.5 33.5v2q0 46 -59 46h-69v-94z" />
    <glyph glyph-name="NUL" horiz-adv-x="0" 
 />
    <glyph glyph-name="hfjslug" horiz-adv-x="694" 
d="M644 -200h-208l-8 14h-163l-8 -14h-207v303q14 0 23 9.5t9 22.5t-9.5 22.5t-22.5 9.5v554h100l30 79h334l29 -79h101v-921zM400 563v-172h15v78h38v14h-38v66h43v14h-58zM184 563v-172h15v79h47v-79h15v172h-15v-79h-47v79h-15zM460 394q10 -4 21 -4q31 0 31 36v137h-16
v-137q0 -22 -16 -22q-8 0 -20 5v-15zM371 465l-13 3q-4 -18 -8 -30h-1l-16 31q23 21 23 42q0 31 -27 31q-12 0 -20 -9t-8 -22t14 -39q-23 -18 -23 -47q0 -16 8 -26.5t21 -10.5q19 0 29 24h1l12 -24l12 6l-17 32q6 14 13 39zM523 323v-46h8v12l8 8l15 -20h10l-20 26l18 20
h-10l-20 -24h-1v24h-8zM488 292l10 -15h9l-12 17q10 4 10 14q0 15 -17 15h-20v-46h8v15h12zM426 276q10 0 17 7t7 17q0 9 -7 16.5t-17 7.5t-17 -7.5t-7 -16.5q0 -10 7 -17t17 -7zM370 301l-13 22h-9l18 -29v-17h8v17l18 29h-9zM193 323v-46h34v7h-26v13h23v7h-23v12h26v7
h-34zM132 323v-46h8v32l25 -32h7v46h-8v-32l-25 32h-7zM241 323l14 -47h8l11 34h1l11 -34h8l14 47h-8l-10 -35h-1l-11 35h-7l-11 -35h-1l-10 35h-8zM327 479q-12 22 -12 32q0 19 14 19q13 0 13 -19q0 -15 -15 -32zM342 423q-8 -21 -20 -21q-16 0 -16 25q0 19 16 35zM487 299
h-11v17h11q10 0 10 -8q0 -9 -10 -9zM426 283q-16 0 -16 17q0 6 4.5 11.5t11.5 5.5t11.5 -5.5t4.5 -11.5q0 -17 -16 -17z" />
    <glyph glyph-name="i.dot" horiz-adv-x="302" 
d="M138 590l38 140h198l-38 -140h-198zM-17 0l145 541h190l-145 -541h-190z" />
    <glyph glyph-name="caron.alt" 
d="M270 550l57 215h141l-1 -3l-122 -212h-75z" />
    <glyph glyph-name="acute.cap" 
d="M252 748l152 162l178 -55l-177 -107h-153z" />
    <glyph glyph-name="hungarumlaut.cap" 
d="M347 748l88 96l-151 -96h-138l147 162l154 -52l48 52l162 -55l-172 -107h-138z" />
    <glyph glyph-name="grave.cap" 
d="M433 910l65 -162h-130l-119 107z" />
    <glyph glyph-name="circumflex.cap" 
d="M174 748l163 149h169l83 -149h-120l-64 53l-94 -53h-137z" />
    <glyph glyph-name="caron.cap" 
d="M629 897l-163 -149h-169l-83 149h120l64 -53l94 53h137z" />
    <glyph glyph-name="breve.cap" 
d="M383 746q-84 0 -126 38.5t-32 112.5h109q6 -45 73 -45q61 0 92 45h119q-29 -74 -90 -112.5t-145 -38.5z" />
    <glyph glyph-name="tilde.cap" 
d="M261 740l-92 28q30 77 63.5 111.5t83.5 34.5q33 0 89 -19.5t69 -19.5q20 0 33 10.5t28 35.5l91 -27q-29 -77 -62.5 -111.5t-83.5 -34.5q-34 0 -90 19.5t-68 19.5q-35 0 -61 -47z" />
    <glyph glyph-name="macron.cap" 
d="M185 755l32 117h398l-32 -117h-398z" />
    <glyph glyph-name="dieresis.cap" 
d="M410 748l38 138h165l-38 -138h-165zM189 748l38 138h165l-38 -138h-165z" />
    <glyph glyph-name="dotaccent.cap" 
d="M296 748l38 138h170l-38 -138h-170z" />
    <glyph glyph-name="ring.cap" 
d="M319 749q-55 0 -91 31.5t-36 77.5q0 59 44.5 100.5t113.5 41.5q55 0 91 -31.5t36 -77.5q0 -59 -44.5 -100.5t-113.5 -41.5zM326 809q37 0 59.5 23t22.5 51q0 26 -18 41.5t-47 15.5q-37 0 -59.5 -23.5t-22.5 -51.5q0 -25 18 -40.5t47 -15.5z" />
    </font>
</defs>
</svg>
