<?xml version="1.0" standalone="no"?>
<!DOCTYPE svg PUBLIC "-//W3C//DTD SVG 1.1//EN" "http://www.w3.org/Graphics/SVG/1.1/DTD/svg11.dtd" >
<svg xmlns="http://www.w3.org/2000/svg" xmlns:xlink="http://www.w3.org/1999/xlink" version="1.1">
<metadata>
Created by FontForge 20161013 at Tue Aug 14 21:28:55 2007
 By ,,,
Copyright (C) 2000, 2007 Hoefler &#38; Frere-Jones. http://www.typography.com
</metadata>
<defs>
<font id="Gotham-BookItalic" horiz-adv-x="500" >
  <font-face 
    font-family="Gotham Book"
    font-weight="325"
    font-style="italic"
    font-stretch="normal"
    units-per-em="1000"
    panose-1="2 0 6 3 4 0 0 2 0 4"
    ascent="800"
    descent="-200"
    x-height="517"
    cap-height="700"
    bbox="-125 -244 1185 994"
    underline-thickness="20"
    underline-position="-173"
    slope="-12"
    unicode-range="U+0020-FB04"
  />
<missing-glyph 
d="M0 -200v1000h500v-1000h-500zM71 750l179 -390l179 390h-358zM50 -76l172 376l-172 376v-752zM450 676l-172 -376l172 -376v752zM250 240l-179 -390h358z" />
    <glyph glyph-name="f_f" unicode="ff" horiz-adv-x="750" 
d="M422 0l121 449h-72l18 68h71l17 62q40 153 178 153q60 0 102 -22l-18 -66q-45 21 -85 21q-78 0 -104 -98l-13 -50h169l-18 -68h-169l-121 -449h-76zM46 0l121 449h-71l18 68h71l17 62q40 153 177 153q61 0 103 -22l-18 -66q-45 21 -85 21q-78 0 -104 -98l-13 -50h169
l-19 -68h-168l-121 -449h-77z" />
    <glyph glyph-name="fi" unicode="fi" horiz-adv-x="639" 
d="M563 630l24 85h87l-23 -85h-88zM46 0l121 449h-71l18 68h71l17 62q40 153 177 153q61 0 103 -22l-18 -66q-45 21 -85 21q-78 0 -104 -98l-13 -50h169l-19 -68h-168l-121 -449h-77zM399 0l139 517h77l-139 -517h-77z" />
    <glyph glyph-name="fl" unicode="fl" horiz-adv-x="639" 
d="M46 0l121 449h-71l18 68h71l17 62q40 153 177 153q61 0 103 -22l-18 -66q-45 21 -85 21q-78 0 -104 -98l-13 -50h169l-19 -68h-168l-121 -449h-77zM399 0l196 730h77l-196 -730h-77z" />
    <glyph glyph-name="f_f_i" unicode="ffi" horiz-adv-x="1014" 
d="M939 630l23 85h88l-24 -85h-87zM422 0l121 449h-72l18 68h71l17 62q40 153 178 153q60 0 102 -22l-18 -66q-45 21 -85 21q-78 0 -104 -98l-13 -50h169l-18 -68h-169l-121 -449h-76zM46 0l121 449h-71l18 68h71l17 62q40 153 177 153q61 0 103 -22l-18 -66q-45 21 -85 21
q-78 0 -104 -98l-13 -50h169l-19 -68h-168l-121 -449h-77zM775 0l139 517h76l-139 -517h-76z" />
    <glyph glyph-name="f_f_l" unicode="ffl" horiz-adv-x="1014" 
d="M422 0l121 449h-72l18 68h71l17 62q40 153 178 153q60 0 102 -22l-18 -66q-45 21 -85 21q-78 0 -104 -98l-13 -50h169l-18 -68h-169l-121 -449h-76zM46 0l121 449h-71l18 68h71l17 62q40 153 177 153q61 0 103 -22l-18 -66q-45 21 -85 21q-78 0 -104 -98l-13 -50h169
l-19 -68h-168l-121 -449h-77zM775 0l196 730h76l-196 -730h-76z" />
    <glyph glyph-name=".notdef" 
d="M0 -200v1000h500v-1000h-500zM71 750l179 -390l179 390h-358zM50 -76l172 376l-172 376v-752zM450 676l-172 -376l172 -376v752zM250 240l-179 -390h358z" />
    <glyph glyph-name=".null" horiz-adv-x="0" 
 />
    <glyph glyph-name="nonmarkingreturn" horiz-adv-x="333" 
 />
    <glyph glyph-name="space" unicode=" " horiz-adv-x="300" 
 />
    <glyph glyph-name="exclam" unicode="!" horiz-adv-x="271" 
d="M97 198l96 445l16 57h90l-15 -57l-143 -445h-44zM20 0l28 105h92l-28 -105h-92z" />
    <glyph glyph-name="quotedbl" unicode="&#x22;" horiz-adv-x="442" 
d="M297 428l91 272h92l-1 -5l-139 -267h-43zM100 428l91 272h92l-1 -5l-139 -267h-43z" />
    <glyph glyph-name="numbersign" unicode="#" horiz-adv-x="682" 
d="M77 0l62 177h-110l17 69h117l74 212h-122l18 69h128l60 173h71l-61 -173h191l60 173h71l-61 -173h111l-18 -69h-116l-75 -212h123l-18 -69h-129l-61 -177h-71l62 177h-191l-61 -177h-71zM234 246h189l75 212h-190z" />
    <glyph glyph-name="dollar" unicode="$" horiz-adv-x="623" 
d="M182 -98l30 104q-135 22 -214 118l58 49q69 -81 180 -98l68 252q-93 36 -134 74.5t-41 102.5q0 84 70 140t174 56q6 0 17.5 -0.5t16.5 -0.5l17 59h63l-18 -68q96 -21 167 -90l-55 -53q-57 57 -136 74l-66 -238q89 -32 129.5 -73.5t40.5 -105.5q0 -89 -73.5 -146.5
t-188.5 -57.5h-14l-27 -98h-64zM292 70q78 -2 127 33t49 93q0 36 -25 62t-85 50zM326 402l62 227q-76 7 -127 -27.5t-51 -89.5q0 -37 26.5 -61.5t89.5 -48.5z" />
    <glyph glyph-name="percent" unicode="%" horiz-adv-x="837" 
d="M232 346q-62 0 -101.5 42t-39.5 104q0 85 55.5 150.5t135.5 65.5q63 0 102.5 -42t39.5 -104q0 -85 -56 -150.5t-136 -65.5zM64 0l679 700h79l-679 -700h-79zM603 -7q-62 0 -101.5 41.5t-39.5 104.5q0 84 56 150t136 66q62 0 101.5 -42t39.5 -104q0 -85 -56 -150.5
t-136 -65.5zM237 401q51 0 88 49t37 107q0 44 -22.5 70t-61.5 26q-51 0 -88 -49t-37 -107q0 -44 22 -70t62 -26zM608 48q51 0 88 49t37 107q0 44 -22.5 70t-61.5 26q-51 0 -88 -49t-37 -108q0 -43 22.5 -69t61.5 -26z" />
    <glyph glyph-name="ampersand" unicode="&#x26;" horiz-adv-x="692" 
d="M557 -14l-78 109q-57 -54 -115 -79.5t-129 -25.5q-90 0 -148 48t-58 131q0 80 58.5 140t173.5 92q-44 74 -44 130q0 76 56 128.5t138 52.5q78 0 125 -42t47 -109q0 -131 -216 -193l125 -175q56 63 108 152l53 -34q-62 -102 -122 -168l85 -119zM332 418q177 49 177 139
q0 40 -27.5 65t-73.5 25q-49 0 -83 -34t-34 -82q0 -52 41 -113zM244 58q101 0 197 88l-145 204q-95 -24 -142 -70.5t-47 -104.5q0 -54 37 -85.5t100 -31.5z" />
    <glyph glyph-name="quotesingle" unicode="'" horiz-adv-x="245" 
d="M100 428l91 272h92l-1 -5l-139 -267h-43z" />
    <glyph glyph-name="parenleft" unicode="(" horiz-adv-x="434" 
d="M264 -141q-176 153 -176 357q0 156 100.5 289t295.5 212l27 -57q-174 -76 -259 -193.5t-85 -248.5q0 -94 37.5 -167.5t105.5 -143.5z" />
    <glyph glyph-name="parenright" unicode=")" horiz-adv-x="434" 
d="M-34 -139l-27 58q174 76 258.5 193t84.5 249q0 94 -37.5 167t-105.5 144l47 47q176 -153 176 -356q0 -157 -100.5 -290.5t-295.5 -211.5z" />
    <glyph glyph-name="asterisk" unicode="*" horiz-adv-x="430" 
d="M272 395l-51 13l43 119l-119 -43l-15 51l127 22l-99 82l39 38l81 -97l22 123l51 -13l-43 -118l119 43l15 -52l-127 -21l99 -82l-39 -38l-81 97z" />
    <glyph glyph-name="plus" unicode="+" horiz-adv-x="625" 
d="M236 110l55 206h-207l19 72h207l56 206h75l-56 -206h208l-20 -72h-207l-55 -206h-75z" />
    <glyph glyph-name="comma" unicode="," horiz-adv-x="255" 
d="M-37 -121l-8 34q82 21 94 87h-37l29 105h91l-24 -90q-18 -64 -51 -94.5t-94 -41.5z" />
    <glyph glyph-name="hyphen" unicode="-" horiz-adv-x="410" 
d="M66 260l21 81h279l-21 -81h-279z" />
    <glyph glyph-name="period" unicode="." horiz-adv-x="255" 
d="M12 0l29 105h91l-28 -105h-92z" />
    <glyph glyph-name="slash" unicode="/" horiz-adv-x="508" 
d="M-125 -128l707 926h78l-707 -926h-78z" />
    <glyph glyph-name="zero" unicode="0" horiz-adv-x="715" 
d="M322 -12q-115 0 -180 74.5t-65 195.5q0 83 27 164.5t74 145.5t116 104t147 40q115 0 180 -75t65 -195q0 -83 -27 -164.5t-74 -145.5t-116 -104t-147 -40zM327 60q74 0 139 57t101.5 145t36.5 180q0 88 -44.5 143t-124.5 55q-74 0 -138.5 -57t-101 -145t-36.5 -180
q0 -88 44 -143t124 -55z" />
    <glyph glyph-name="one" unicode="1" horiz-adv-x="361" 
d="M94 0l165 617l-142 -41l-2 69l188 60h59l-189 -705h-79z" />
    <glyph glyph-name="two" unicode="2" horiz-adv-x="595" 
d="M-22 0l16 62l401 304q61 46 89 84t28 81q0 48 -35.5 77.5t-97.5 29.5q-98 0 -192 -96l-52 50q111 118 247 118q94 0 153 -48.5t59 -125.5q0 -60 -36 -110.5t-114 -108.5l-323 -245h374l-19 -72h-498z" />
    <glyph glyph-name="three" unicode="3" horiz-adv-x="605" 
d="M248 -12q-89 0 -151 36t-94 100l62 40q59 -104 187 -104q83 0 138 44t55 111q0 59 -48 89t-133 30h-32l-10 45l283 250h-345l20 71h456l-16 -58l-285 -249q84 -7 138 -51.5t54 -120.5q0 -100 -81.5 -166.5t-197.5 -66.5z" />
    <glyph glyph-name="four" unicode="4" horiz-adv-x="649" 
d="M354 0l45 166h-364l-10 59l519 480h76l-127 -473h109l-18 -66h-109l-44 -166h-77zM129 232h288l96 357z" />
    <glyph glyph-name="five" unicode="5" horiz-adv-x="603" 
d="M251 -12q-81 0 -143 34.5t-99 90.5l61 45q72 -99 187 -99q89 0 146 51t57 121q0 62 -43 98t-114 36q-73 0 -143 -38l-45 36l110 337h391l-21 -73h-319l-74 -220q56 27 120 27q100 0 160.5 -53.5t60.5 -143.5q0 -103 -81.5 -176t-210.5 -73z" />
    <glyph glyph-name="six" unicode="6" horiz-adv-x="641" 
d="M316 -12q-108 0 -170 64q-69 69 -69 194q0 109 37.5 205t101.5 160q101 101 232 101q127 0 207 -90l-52 -54q-67 72 -161 72q-95 0 -169 -74q-42 -42 -71.5 -103.5t-36.5 -124.5q32 44 84.5 73t117.5 29q100 0 160.5 -57.5t60.5 -143.5q0 -102 -78.5 -176.5t-193.5 -74.5
zM318 57q81 0 135 52t54 124q0 57 -40.5 98t-114.5 41q-84 0 -138.5 -50.5t-54.5 -117.5q0 -64 41 -103q43 -44 118 -44z" />
    <glyph glyph-name="seven" unicode="7" horiz-adv-x="586" 
d="M61 0l461 628h-381l20 72h475l-17 -59l-466 -641h-92z" />
    <glyph glyph-name="eight" unicode="8" horiz-adv-x="647" 
d="M296 -10q-112 0 -185 53.5t-73 133.5t56.5 130t147.5 66q-45 18 -73 56.5t-28 88.5q0 80 71.5 136t181.5 56q104 0 170 -51t66 -130q0 -69 -48.5 -117t-124.5 -64q50 -18 84.5 -59t34.5 -96q0 -86 -79 -144.5t-201 -58.5zM376 390q81 0 128.5 39t47.5 92t-44 87t-116 34
q-76 0 -124.5 -37.5t-48.5 -93.5q0 -52 44 -86.5t113 -34.5zM301 58q87 0 140.5 38.5t54.5 100.5q0 53 -50.5 90.5t-131.5 37.5q-88 0 -142 -41t-54 -99q-1 -56 49.5 -91.5t133.5 -35.5z" />
    <glyph glyph-name="nine" unicode="9" horiz-adv-x="641" 
d="M243 -13q-128 0 -215 97l52 54q73 -79 167 -79t169 75q42 41 71 101t36 122q-31 -44 -83 -75t-120 -31q-100 0 -160.5 58.5t-60.5 146.5q1 105 79.5 180t194.5 75q105 0 170 -63q69 -71 69 -199q0 -107 -38 -202t-102 -159q-103 -101 -229 -101zM338 320q82 0 136.5 53
t54.5 123q0 62 -40 102q-45 45 -118 45q-82 0 -136 -53.5t-54 -127.5q-1 -59 40 -100.5t117 -41.5z" />
    <glyph glyph-name="colon" unicode=":" horiz-adv-x="262" 
d="M126 412l29 105h92l-29 -105h-92zM16 0l28 105h92l-28 -105h-92z" />
    <glyph glyph-name="semicolon" unicode=";" horiz-adv-x="262" 
d="M126 412l29 105h92l-29 -105h-92zM-33 -121l-8 34q81 21 93 87h-36l28 105h92l-24 -90q-18 -64 -51 -94.5t-94 -41.5z" />
    <glyph glyph-name="less" unicode="&#x3c;" horiz-adv-x="625" 
d="M487 86l-408 233l18 66l533 233l-22 -83l-436 -188l335 -189z" />
    <glyph glyph-name="equal" unicode="=" horiz-adv-x="625" 
d="M130 432l19 74h460l-20 -74h-459zM66 198l21 74h459l-20 -74h-460z" />
    <glyph glyph-name="greater" unicode="&#x3e;" horiz-adv-x="625" 
d="M44 86l22 83l436 188l-335 189l20 72l408 -233l-18 -66z" />
    <glyph glyph-name="question" unicode="?" horiz-adv-x="537" 
d="M189 198l28 162l6 5q109 8 173 50t64 111q0 52 -37 81.5t-96 29.5q-100 0 -182 -80l-45 52q100 100 235 100q94 0 150.5 -50.5t56.5 -126.5q0 -93 -72 -150t-190 -74l-40 -110h-51zM117 0l28 105h92l-28 -105h-92z" />
    <glyph glyph-name="at" unicode="@" horiz-adv-x="980" 
d="M482 -159q-189 0 -304 107.5t-115 283.5q0 127 65.5 237.5t178.5 177t246 66.5q181 0 288 -100.5t107 -250.5q0 -136 -66.5 -213.5t-148.5 -77.5q-52 0 -84 25t-41 69q-79 -96 -179 -96q-68 0 -113.5 45t-45.5 122q0 110 76 189t170 79q107 0 147 -98l27 88l65 -17
l-76 -244q-17 -53 1 -87.5t65 -34.5q59 0 112.5 67t53.5 184q0 135 -97.5 226t-260.5 91q-122 0 -227 -62t-165.5 -165t-60.5 -220q0 -160 105 -258.5t277 -98.5q109 0 206 45l15 -31q-105 -48 -221 -48zM449 131q70 0 129 59.5t59 134.5q0 52 -32 84.5t-85 32.5
q-71 0 -122.5 -59t-51.5 -141q0 -52 28.5 -81.5t74.5 -29.5z" />
    <glyph glyph-name="A" unicode="A" horiz-adv-x="761" 
d="M-40 0l508 705h76l130 -705h-81l-32 185h-382l-132 -185h-87zM229 256h319l-63 359z" />
    <glyph glyph-name="B" unicode="B" horiz-adv-x="717" 
d="M30 0l188 700h262q102 0 159.5 -44t57.5 -119q0 -72 -48.5 -120t-126.5 -64q124 -38 124 -145q0 -92 -79 -150t-215 -58h-322zM212 388h199q94 0 149.5 38t55.5 101q0 49 -37 75.5t-106 26.5h-197zM127 71h234q95 0 150 37.5t55 102.5q0 52 -44 79.5t-117 27.5h-212z" />
    <glyph glyph-name="C" unicode="C" horiz-adv-x="735" 
d="M383 -13q-127 0 -212.5 79t-85.5 211q0 112 56 212t153.5 161.5t210.5 61.5q93 0 160 -40.5t104 -109.5l-68 -42q-35 59 -82.5 89t-120.5 30q-134 0 -232 -109t-98 -250q0 -100 61 -159.5t158 -59.5q119 0 217 95l53 -52q-117 -117 -274 -117z" />
    <glyph glyph-name="D" unicode="D" horiz-adv-x="773" 
d="M30 0l188 700h169q178 0 273 -93q76 -76 76 -201q0 -161 -110 -273q-133 -133 -359 -133h-237zM129 73h148q179 0 289 110q88 88 88 218q0 98 -59 155q-71 71 -213 71h-104z" />
    <glyph glyph-name="E" unicode="E" horiz-adv-x="653" 
d="M30 0l188 700h501l-20 -72h-422l-64 -239h377l-20 -72h-376l-66 -245h427l-19 -72h-506z" />
    <glyph glyph-name="F" unicode="F" horiz-adv-x="658" 
d="M30 0l188 700h503l-19 -73h-425l-67 -250h380l-20 -72h-379l-82 -305h-79z" />
    <glyph glyph-name="G" unicode="G" horiz-adv-x="784" 
d="M396 -13q-132 0 -221 80.5t-89 217.5q0 108 55.5 206t155.5 159.5t219 61.5q179 0 264 -128l-60 -47q-35 49 -83.5 76t-127.5 27q-94 0 -173 -51t-123 -132t-44 -169q0 -106 64 -167t168 -61q102 0 181 49l55 194h-211l19 71h289l-89 -314q-117 -73 -249 -73z" />
    <glyph glyph-name="H" unicode="H" horiz-adv-x="756" 
d="M30 0l188 700h79l-83 -311h399l83 311h80l-188 -700h-80l85 315h-399l-85 -315h-79z" />
    <glyph glyph-name="I" unicode="I" horiz-adv-x="291" 
d="M37 0l188 700h79l-188 -700h-79z" />
    <glyph glyph-name="J" unicode="J" horiz-adv-x="548" 
d="M194 -10q-79 0 -131.5 40.5t-76.5 108.5l63 37q44 -113 146 -113q68 0 118 48q45 46 73 151l118 438h80l-122 -453q-33 -127 -95 -189q-68 -68 -173 -68z" />
    <glyph glyph-name="K" unicode="K" horiz-adv-x="718" 
d="M30 0l188 700h79l-111 -416l502 416h112l-376 -308l199 -392h-89l-174 346l-203 -167l-48 -179h-79z" />
    <glyph glyph-name="L" unicode="L" horiz-adv-x="607" 
d="M30 0l188 700h79l-168 -627h394l-20 -73h-473z" />
    <glyph glyph-name="M" unicode="M" horiz-adv-x="869" 
d="M30 0l188 700h74l151 -382l357 382h88l-188 -700h-80l152 567l-355 -375h-4l-153 374l-152 -566h-78z" />
    <glyph glyph-name="N" unicode="N" horiz-adv-x="786" 
d="M30 0l188 700h73l285 -568l153 568h77l-188 -700h-63l-292 581l-156 -581h-77z" />
    <glyph glyph-name="O" unicode="O" horiz-adv-x="842" 
d="M395 -13q-134 0 -220.5 87t-86.5 217q0 108 53 204.5t148 156.5t207 60q134 0 220.5 -87t86.5 -216q0 -108 -53 -205t-148 -157t-207 -60zM400 60q89 0 163.5 50t115.5 129.5t41 166.5q0 101 -63 167t-166 66q-89 0 -163.5 -50t-115.5 -129.5t-41 -166.5q0 -101 63 -167
t166 -66z" />
    <glyph glyph-name="P" unicode="P" horiz-adv-x="667" 
d="M30 0l188 700h219q134 0 200 -65q50 -52 50 -130q0 -120 -94 -188t-251 -68h-166l-67 -249h-79zM195 319h151q124 0 191.5 47.5t67.5 133.5q0 51 -32 83q-44 44 -139 44h-157z" />
    <glyph glyph-name="Q" unicode="Q" horiz-adv-x="842" 
d="M672 -29l-65 82q-98 -66 -212 -66q-134 0 -220.5 87t-86.5 217q0 108 53 204.5t148 156.5t207 60q134 0 220.5 -87t86.5 -216q0 -88 -37 -170t-102 -143l70 -79zM400 60q89 0 162 51l-109 128l62 47l102 -129q103 105 103 249q0 101 -63 167t-166 66q-89 0 -163.5 -50
t-115.5 -129.5t-41 -166.5q0 -101 63 -167t166 -66z" />
    <glyph glyph-name="R" unicode="R" horiz-adv-x="717" 
d="M30 0l188 700h252q131 0 197 -64q46 -48 46 -121q0 -88 -62 -152q-65 -65 -194 -83l144 -280h-91l-138 272h-190l-73 -272h-79zM201 343h190q135 0 199 64q42 44 42 102q0 47 -29 76q-42 42 -137 42h-188z" />
    <glyph glyph-name="S" unicode="S" horiz-adv-x="637" 
d="M298 -10q-190 0 -286 133l60 47q89 -109 231 -109q76 0 126.5 37t50.5 94q0 40 -31.5 68t-112.5 60q-103 41 -147.5 81.5t-44.5 105.5q0 87 72.5 145t185.5 58q157 0 248 -106l-58 -52q-79 87 -197 87q-76 0 -122 -36.5t-46 -86.5q0 -41 34 -68t121 -61q94 -36 137.5 -78
t43.5 -107q0 -92 -76 -152t-189 -60z" />
    <glyph glyph-name="T" unicode="T" horiz-adv-x="616" 
d="M196 0l168 627h-236l20 73h551l-20 -73h-236l-168 -627h-79z" />
    <glyph glyph-name="U" unicode="U" horiz-adv-x="758" 
d="M347 -11q-122 0 -188.5 61.5t-66.5 162.5q0 55 15 109l100 378h80l-106 -399q-10 -35 -10 -79q0 -72 46.5 -116t136.5 -44q91 0 156 64q61 63 89 171l109 403h79l-112 -417q-36 -133 -110 -207q-87 -87 -218 -87z" />
    <glyph glyph-name="V" unicode="V" horiz-adv-x="717" 
d="M247 -5l-110 705h84l86 -602l409 602h90l-488 -705h-71z" />
    <glyph glyph-name="W" unicode="W" horiz-adv-x="1083" 
d="M206 -5l-61 705h82l44 -583l347 585h65l37 -585l356 583h89l-439 -705h-69l-40 565l-343 -565h-68z" />
    <glyph glyph-name="X" unicode="X" horiz-adv-x="694" 
d="M-31 0l359 362l-176 338h87l146 -286l279 286h102l-346 -349l182 -351h-87l-152 299l-291 -299h-103z" />
    <glyph glyph-name="Y" unicode="Y" horiz-adv-x="663" 
d="M216 0l76 282l-173 418h88l140 -353l330 353h101l-410 -431l-72 -269h-80z" />
    <glyph glyph-name="Z" unicode="Z" horiz-adv-x="669" 
d="M-19 0l14 53l597 576h-427l20 71h542l-14 -53l-598 -576h446l-19 -71h-561z" />
    <glyph glyph-name="bracketleft" unicode="[" horiz-adv-x="439" 
d="M9 -130l223 830h286l-16 -60h-214l-190 -710h213l-16 -60h-286z" />
    <glyph glyph-name="backslash" unicode="\" horiz-adv-x="508" 
d="M357 -128l-218 926h66l218 -926h-66z" />
    <glyph glyph-name="bracketright" unicode="]" horiz-adv-x="439" 
d="M-66 -130l17 60h214l190 710h-214l16 60h287l-223 -830h-287z" />
    <glyph glyph-name="asciicircum" unicode="^" 
d="M117 493l211 209h60l100 -209h-61l-77 154l-159 -154h-74z" />
    <glyph glyph-name="underscore" unicode="_" horiz-adv-x="600" 
d="M-114 -160l17 63h605l-18 -63h-604z" />
    <glyph glyph-name="grave" unicode="`" 
d="M362 595l-83 108l81 37l56 -145h-54z" />
    <glyph glyph-name="a" unicode="a" horiz-adv-x="576" 
d="M182 -11q-69 0 -116 38.5t-47 104.5q0 86 64 136.5t166 50.5q85 0 183 -28l4 14q6 21 6 46q0 104 -139 104q-73 0 -146 -27l-14 65q83 32 172 32q97 0 150 -42.5t53 -118.5q0 -31 -10 -71l-78 -293h-76l21 81q-79 -92 -193 -92zM207 50q67 0 125.5 43t76.5 110l10 36
q-86 23 -167 23q-68 0 -111 -34t-43 -87q0 -41 29.5 -66t79.5 -25z" />
    <glyph glyph-name="b" unicode="b" horiz-adv-x="659" 
d="M319 -12q-139 0 -194 128l-31 -116h-77l196 730h77l-82 -302q89 100 196 100q89 0 147 -60.5t58 -158.5q0 -135 -87 -228t-203 -93zM312 56q91 0 153.5 73t62.5 173q0 72 -40 115t-106 43q-87 0 -158.5 -74.5t-71.5 -168.5q0 -68 45 -114.5t115 -46.5z" />
    <glyph glyph-name="c" unicode="c" horiz-adv-x="562" 
d="M277 -12q-95 0 -162 61.5t-67 164.5q0 127 90.5 220.5t213.5 93.5q76 0 127 -34t79 -87l-62 -39q-55 92 -149 92q-88 0 -154 -73.5t-66 -170.5q0 -73 45 -116.5t109 -43.5q78 0 153 68l45 -50q-91 -86 -202 -86z" />
    <glyph glyph-name="d" unicode="d" horiz-adv-x="659" 
d="M255 -12q-89 0 -147 61t-58 158q0 135 87 228t203 93q141 0 194 -128l88 330h77l-195 -730h-77l23 88q-88 -100 -195 -100zM277 56q87 0 158.5 75t71.5 169q0 68 -45 114t-115 46q-91 0 -153.5 -73t-62.5 -173q0 -71 40.5 -114.5t105.5 -43.5z" />
    <glyph glyph-name="e" unicode="e" horiz-adv-x="589" 
d="M126 229q-1 -6 -1 -18q0 -71 42 -113.5t114 -42.5q84 0 159 61l40 -51q-91 -77 -203 -77q-103 0 -166 61t-63 159q0 123 87.5 221.5t213.5 98.5q94 0 147 -56.5t53 -141.5q0 -50 -19 -101h-404zM137 291h333q4 20 4 39q0 57 -33 95t-96 38q-74 0 -129.5 -48.5
t-78.5 -123.5z" />
    <glyph glyph-name="f" unicode="f" horiz-adv-x="375" 
d="M46 0l121 449h-71l18 68h71l17 62q40 153 177 153q61 0 103 -22l-18 -66q-45 21 -85 21q-78 0 -104 -98l-13 -50h169l-19 -68h-168l-121 -449h-77z" />
    <glyph glyph-name="g" unicode="g" horiz-adv-x="659" 
d="M240 -162q-71 0 -138 24t-115 66l48 54q91 -78 204 -78q94 0 145 53q41 40 65 124l14 52q-91 -93 -198 -93q-86 0 -148 53t-62 142q0 125 88.5 209t201.5 84q132 0 190 -124l30 113h77l-118 -443q-30 -109 -84 -163q-73 -73 -200 -73zM287 106q87 0 154 64t67 144
q0 60 -43.5 103t-115.5 43q-85 0 -149 -62t-64 -153q0 -66 44 -102.5t107 -36.5z" />
    <glyph glyph-name="h" unicode="h" horiz-adv-x="613" 
d="M17 0l196 730h77l-80 -297q84 95 180 95q75 0 120 -43.5t45 -116.5q0 -30 -13 -80l-76 -288h-77l78 293q8 27 8 58q0 51 -31 79.5t-85 28.5q-60 0 -113.5 -47t-73.5 -120l-78 -292h-77z" />
    <glyph glyph-name="i" unicode="i" horiz-adv-x="264" 
d="M188 630l23 85h88l-23 -85h-88zM24 0l139 517h77l-139 -517h-77z" />
    <glyph glyph-name="j" unicode="j" horiz-adv-x="263" 
d="M188 630l23 85h88l-23 -85h-88zM-50 -163q-38 0 -69 9l18 65q23 -7 44 -7q55 0 74 70l146 543h77l-148 -551q-36 -129 -142 -129z" />
    <glyph glyph-name="k" unicode="k" horiz-adv-x="568" 
d="M17 0l196 730h77l-133 -497l348 284h105l-277 -223l142 -294h-87l-120 245l-138 -110l-36 -135h-77z" />
    <glyph glyph-name="l" unicode="l" horiz-adv-x="264" 
d="M24 0l196 730h77l-196 -730h-77z" />
    <glyph glyph-name="m" unicode="m" horiz-adv-x="950" 
d="M17 0l138 517h77l-22 -84q41 46 80.5 70.5t91.5 24.5q61 0 98 -33.5t49 -83.5q76 117 208 117q70 0 114 -44t44 -116q0 -17 -14 -80l-77 -288h-77l79 293q7 30 7 58q0 50 -28.5 79t-78.5 29q-57 0 -108.5 -47.5t-70.5 -119.5l-77 -292h-77l78 293q8 27 8 58q0 50 -29 79
t-79 29q-57 0 -108.5 -47.5t-70.5 -119.5l-78 -292h-77z" />
    <glyph glyph-name="n" unicode="n" horiz-adv-x="613" 
d="M17 0l138 517h77l-22 -84q84 95 180 95q75 0 120 -43.5t45 -116.5q0 -30 -13 -80l-76 -288h-77l78 293q8 27 8 58q0 51 -31 79.5t-85 28.5q-60 0 -113.5 -47t-73.5 -120l-78 -292h-77z" />
    <glyph glyph-name="o" unicode="o" horiz-adv-x="638" 
d="M284 -12q-105 0 -170 65t-65 167q0 122 90.5 215t213.5 93q106 0 171 -65t65 -166q0 -124 -91.5 -216.5t-213.5 -92.5zM289 57q87 0 154 72.5t67 164.5q0 78 -44.5 122t-117.5 44q-88 0 -154.5 -73.5t-66.5 -164.5q0 -77 44.5 -121t117.5 -44z" />
    <glyph glyph-name="p" unicode="p" horiz-adv-x="659" 
d="M-26 -160l181 677h77l-24 -89q89 100 196 100q89 0 147 -60.5t58 -158.5q0 -135 -87 -228t-203 -93q-139 0 -194 128l-74 -276h-77zM312 56q91 0 153.5 73t62.5 173q0 72 -40 115t-106 43q-87 0 -158.5 -74.5t-71.5 -168.5q0 -68 45 -114.5t115 -46.5z" />
    <glyph glyph-name="q" unicode="q" horiz-adv-x="659" 
d="M385 -160l66 249q-90 -101 -196 -101q-89 0 -147 61t-58 158q0 135 87 228t203 93q74 0 122.5 -35.5t71.5 -91.5l31 116h77l-180 -677h-77zM277 56q87 0 158.5 75t71.5 169q0 68 -45 114t-115 46q-91 0 -153.5 -73t-62.5 -173q0 -71 40.5 -114.5t105.5 -43.5z" />
    <glyph glyph-name="r" unicode="r" horiz-adv-x="402" 
d="M17 0l138 517h77l-35 -135q106 152 246 144l-22 -83h-5q-89 0 -163 -63t-104 -176l-55 -204h-77z" />
    <glyph glyph-name="s" unicode="s" horiz-adv-x="496" 
d="M217 -11q-133 0 -223 90l50 50q79 -76 180 -76q46 0 80 24t34 62q0 26 -21.5 46.5t-76.5 41.5q-76 30 -111 60.5t-35 81.5q0 68 54 113.5t142 45.5q54 0 105 -20.5t86 -50.5l-45 -53q-74 60 -153 60q-52 0 -82 -24t-30 -58q0 -26 21.5 -45.5t81.5 -42.5q74 -30 107.5 -62
t33.5 -80q0 -71 -57 -117t-141 -46z" />
    <glyph glyph-name="t" unicode="t" horiz-adv-x="401" 
d="M202 -9q-57 0 -91.5 26.5t-34.5 75.5q0 26 7 54l81 302h-71l18 68h72l42 156h76l-42 -156h163l-18 -68h-163l-80 -298q-4 -24 -4 -38q0 -53 71 -53q34 0 75 16l-19 -70q-37 -15 -82 -15z" />
    <glyph glyph-name="u" unicode="u" horiz-adv-x="613" 
d="M222 -11q-75 0 -119.5 43.5t-44.5 116.5q0 30 13 80l76 288h77l-79 -293q-7 -30 -7 -58q0 -51 30.5 -79.5t84.5 -28.5q61 0 114.5 47.5t72.5 120.5l78 291h77l-138 -517h-77l23 84q-84 -95 -181 -95z" />
    <glyph glyph-name="v" unicode="v" horiz-adv-x="566" 
d="M171 -4l-83 521h81l58 -429l286 429h87l-361 -521h-68z" />
    <glyph glyph-name="w" unicode="w" horiz-adv-x="848" 
d="M137 -4l-41 521h78l27 -412l250 414h64l29 -414l249 412h80l-322 -521h-68l-30 408l-249 -408h-67z" />
    <glyph glyph-name="x" unicode="x" horiz-adv-x="564" 
d="M-35 0l278 268l-130 249h85l98 -197l197 197h97l-263 -256l135 -261h-85l-103 210l-212 -210h-97z" />
    <glyph glyph-name="y" unicode="y" horiz-adv-x="574" 
d="M38 -163q-61 0 -113 36l42 58q33 -26 79 -26q67 0 135 96l-94 516h80l72 -431l278 431h87l-354 -534q-54 -79 -103.5 -112.5t-108.5 -33.5z" />
    <glyph glyph-name="z" unicode="z" horiz-adv-x="549" 
d="M-20 0l14 49l441 403h-321l18 65h432l-14 -49l-442 -403h338l-18 -65h-448z" />
    <glyph glyph-name="braceleft" unicode="{" horiz-adv-x="483" 
d="M311 -141q-86 18 -126 61t-40 102q0 37 23 111q10 31 10 59q0 33 -20 49t-71 16h-28l16 60h28q75 0 109 37.5t52 137.5q19 109 80 163t194 60l1 -55q-102 -6 -146 -49t-58 -132q-18 -103 -52.5 -144.5t-103.5 -52.5q73 -18 73 -84q0 -30 -11 -63q-21 -63 -21 -103
q0 -46 26 -76.5t89 -48.5z" />
    <glyph glyph-name="bar" unicode="|" horiz-adv-x="303" 
d="M139 -128v926h64v-926h-64z" />
    <glyph glyph-name="braceright" unicode="}" horiz-adv-x="483" 
d="M-40 -141l-1 55q101 6 145 49t59 132q18 103 52.5 144.5t103.5 52.5q-74 18 -74 84q0 27 12 63q21 70 21 103q0 46 -26 76.5t-89 48.5l24 48q165 -34 165 -163q0 -35 -22 -111q-11 -35 -11 -59q0 -33 20.5 -49t71.5 -16h27l-15 -60h-28q-75 0 -109 -37.5t-53 -137.5
q-19 -109 -79.5 -163t-193.5 -60z" />
    <glyph glyph-name="asciitilde" unicode="~" horiz-adv-x="473" 
d="M128 238l-50 22q51 106 118 106q34 0 70 -33q19 -18 28 -23.5t21 -5.5q17 0 30.5 14t31.5 45l49 -21q-49 -106 -117 -106q-15 0 -27.5 4.5t-20.5 10.5t-22 18q-32 29 -49 29t-30.5 -14t-31.5 -46z" />
    <glyph glyph-name="uni00A0" unicode="&#xa0;" horiz-adv-x="300" 
 />
    <glyph glyph-name="exclamdown" unicode="&#xa1;" horiz-adv-x="271" 
d="M180 595l28 105h92l-29 -105h-91zM21 0l15 57l143 445h43l-95 -445l-16 -57h-90z" />
    <glyph glyph-name="cent" unicode="&#xa2;" horiz-adv-x="566" 
d="M204 105q-61 26 -96 80t-35 124q0 130 90 223t218 93q18 0 26 -1l33 82h64l-37 -93q88 -29 129 -110l-61 -39q-38 65 -97 84l-154 -393q16 -2 25 -2q90 0 166 66l45 -51q-91 -84 -212 -84q-27 0 -47 4l-37 -94h-64zM383 556h-5q-94 0 -160.5 -73t-66.5 -173
q0 -47 21.5 -83.5t59.5 -56.5z" />
    <glyph glyph-name="sterling" unicode="&#xa3;" horiz-adv-x="629" 
d="M-5 0l12 46l89 21l62 228h-84l19 69h83l33 121q27 103 80 154q67 69 169 69q131 0 194 -113l-65 -42q-25 41 -56 61.5t-78 20.5q-63 0 -107 -44q-41 -41 -62 -120l-29 -107h280l-19 -69h-280l-60 -225h356l-19 -70h-518z" />
    <glyph glyph-name="yen" unicode="&#xa5;" horiz-adv-x="703" 
d="M240 0l31 116h-203l16 62h203l23 88h-203l17 62h177l-158 372h88l141 -344l326 344h99l-360 -372h174l-17 -62h-206l-23 -88h206l-17 -62h-206l-30 -116h-78z" />
    <glyph glyph-name="section" unicode="&#xa7;" horiz-adv-x="632" 
d="M287 -10q-69 0 -129.5 24t-95.5 61l50 50q32 -31 80 -51t102 -20q46 0 77 18.5t31 48.5q0 27 -29 46.5t-100 43.5q-98 33 -143 64.5t-45 80.5q0 55 50 90t131 39q-66 36 -66 93q0 59 55.5 96t137.5 37q68 0 128.5 -24t95.5 -61l-49 -50q-75 71 -183 71q-46 0 -77 -18.5
t-31 -48.5q0 -27 29.5 -47t99.5 -43q98 -33 143 -64.5t45 -80.5q0 -55 -50 -90t-131 -39q66 -35 66 -93q0 -59 -55.5 -96t-136.5 -37zM394 257q52 0 88 23t36 55q0 27 -27.5 47t-92.5 41t-113 21q-52 0 -88 -23t-36 -55q0 -27 27.5 -47t92.5 -41q60 -21 113 -21z" />
    <glyph glyph-name="dieresis" unicode="&#xa8;" 
d="M375 595l26 95h89l-26 -95h-89zM198 595l26 95h90l-26 -95h-90z" />
    <glyph glyph-name="copyright" unicode="&#xa9;" horiz-adv-x="830" 
d="M438 -12q-151 0 -256 106t-105 255t106 256t257 107t256 -106t105 -255t-106 -256t-257 -107zM438 19q140 0 235 97t95 235t-94.5 234t-233.5 96q-140 0 -235 -97t-95 -235t94.5 -234t233.5 -96zM443 163q-79 0 -132.5 56t-53.5 136t53.5 136t133.5 56q82 0 144 -60
l-36 -40q-52 50 -108 50q-57 0 -94 -41t-37 -100t38 -100.5t93 -41.5q56 0 111 50l36 -35q-66 -66 -148 -66z" />
    <glyph glyph-name="ordfeminine" unicode="&#xaa;" horiz-adv-x="390" 
d="M190 407q-37 0 -61 21t-24 55q0 49 36.5 78t93.5 29q37 0 93 -15l2 6q4 14 4 24q0 53 -72 53q-40 0 -80 -15l-9 43q47 18 99 18q54 0 83.5 -23.5t29.5 -65.5q0 -14 -6 -40l-43 -162h-51l12 46q-47 -52 -107 -52zM56 289l12 47h250l-12 -47h-250zM207 446q35 0 67.5 24.5
t41.5 58.5l4 13q-40 11 -81 11q-36 0 -58.5 -18t-22.5 -46q0 -19 13.5 -31t35.5 -12z" />
    <glyph glyph-name="guillemotleft" unicode="&#xab;" horiz-adv-x="550" 
d="M372 39l-105 213l2 8l222 216l50 -42l-188 -187l82 -177zM150 39l-105 213l2 8l222 216l50 -42l-188 -187l82 -177z" />
    <glyph glyph-name="registered" unicode="&#xae;" horiz-adv-x="403" 
d="M277 360q-73 0 -123.5 51t-50.5 123v1q0 72 51 123.5t123 51.5q73 0 123.5 -51t50.5 -123v-1q0 -72 -51 -123.5t-123 -51.5zM277 379q65 0 109.5 46t44.5 110v1q0 64 -44.5 109.5t-109.5 45.5t-109.5 -46t-44.5 -110v-1q0 -64 44.5 -109.5t109.5 -45.5zM209 450v177h80
q30 0 49 -14.5t19 -41.5q0 -42 -41 -54l47 -67h-41l-42 61h-37v-61h-34zM243 539h43q36 0 36 29t-36 29h-43v-58z" />
    <glyph glyph-name="macron" unicode="&#xaf;" 
d="M186 615l17 63h319l-17 -63h-319z" />
    <glyph glyph-name="degree" unicode="&#xb0;" horiz-adv-x="387" 
d="M223 398q-60 0 -97.5 38t-37.5 96q0 70 51 122t122 52q59 0 97 -38t38 -95q0 -70 -51 -122.5t-122 -52.5zM228 450q45 0 78 36t33 82q0 39 -23 62.5t-60 23.5q-45 0 -78 -36t-33 -82q0 -39 23 -62.5t60 -23.5z" />
    <glyph glyph-name="plusminus" unicode="&#xb1;" horiz-adv-x="625" 
d="M577 364h-199l-53 -195h-73l53 195h-200l19 70h200l51 195h74l-52 -195h199zM480 0h-471l18 69h471z" />
    <glyph glyph-name="acute" unicode="&#xb4;" 
d="M239 595l134 145l80 -37l-142 -108h-72z" />
    <glyph glyph-name="paragraph" unicode="&#xb6;" horiz-adv-x="517" 
d="M268 0l66 249q-107 5 -171.5 51.5t-64.5 139.5q0 120 88 190t245 70h105l-188 -700h-80z" />
    <glyph glyph-name="periodcentered" unicode="&#xb7;" horiz-adv-x="255" 
d="M77 248l29 105h91l-28 -105h-92z" />
    <glyph glyph-name="cedilla" unicode="&#xb8;" 
d="M129 -155l-66 34l125 131h61z" />
    <glyph glyph-name="ordmasculine" unicode="&#xba;" horiz-adv-x="393" 
d="M245 405q-59 0 -96 36.5t-37 94.5q0 68 49.5 118.5t118.5 50.5q59 0 96 -37t37 -94q0 -68 -49.5 -118.5t-118.5 -50.5zM58 289l12 47h270l-12 -47h-270zM248 451q46 0 79 37t33 84q0 39 -23 63t-60 24q-46 0 -79 -36.5t-33 -84.5q0 -39 23 -63t60 -24z" />
    <glyph glyph-name="guillemotright" unicode="&#xbb;" horiz-adv-x="550" 
d="M279 38l-49 42l187 187l-82 177l63 31l105 -213l-2 -8zM58 38l-50 42l187 187l-82 177l63 31l105 -213l-2 -8z" />
    <glyph glyph-name="questiondown" unicode="&#xbf;" horiz-adv-x="537" 
d="M349 595l28 105h92l-28 -105h-92zM251 -9q-94 0 -150.5 50.5t-56.5 126.5q0 93 72 150t190 74l40 110h50l-27 -162l-7 -5q-108 -8 -172 -50t-64 -111q0 -53 37 -82t96 -29q98 0 182 80l45 -52q-100 -100 -235 -100z" />
    <glyph glyph-name="Agrave" unicode="&#xc0;" horiz-adv-x="761" 
d="M-40 0l508 705h76l130 -705h-81l-32 185h-382l-132 -185h-87zM229 256h319l-63 359zM473 901l66 -129h-55l-90 93z" />
    <glyph glyph-name="Aacute" unicode="&#xc1;" horiz-adv-x="761" 
d="M-40 0l508 705h76l130 -705h-81l-32 185h-382l-132 -185h-87zM229 256h319l-63 359zM485 772l135 129l78 -36l-139 -93h-74z" />
    <glyph glyph-name="Acircumflex" unicode="&#xc2;" horiz-adv-x="761" 
d="M-40 0l508 705h76l130 -705h-81l-32 185h-382l-132 -185h-87zM229 256h319l-63 359zM371 770l142 118h72l78 -118h-67l-58 60l-91 -60h-76z" />
    <glyph glyph-name="Atilde" unicode="&#xc3;" horiz-adv-x="761" 
d="M-40 0l508 705h76l130 -705h-81l-32 185h-382l-132 -185h-87zM229 256h319l-63 359zM413 763l-48 15q25 53 50 77t59 24q24 0 68.5 -19.5t59.5 -19.5q19 0 31.5 10.5t28.5 36.5l49 -15q-24 -53 -49.5 -76.5t-59.5 -23.5q-24 0 -68.5 19.5t-59.5 19.5q-19 0 -31.5 -10.5
t-29.5 -37.5z" />
    <glyph glyph-name="Adieresis" unicode="&#xc4;" horiz-adv-x="761" 
d="M-40 0l508 705h76l130 -705h-81l-32 185h-382l-132 -185h-87zM229 256h319l-63 359zM572 772l25 90h93l-25 -90h-93zM385 772l25 90h93l-24 -90h-94z" />
    <glyph glyph-name="Aring" unicode="&#xc5;" horiz-adv-x="761" 
d="M-40 0l482 669q-37 24 -37 68q0 47 36.5 79.5t88.5 32.5q43 0 71.5 -24.5t28.5 -62.5q0 -35 -21.5 -62.5t-56.5 -40.5l122 -659h-81l-32 185h-382l-132 -185h-87zM229 257h319l-63 358zM508 688q32 0 54.5 20.5t22.5 49.5q0 23 -16 38t-43 15q-31 0 -53.5 -20.5
t-22.5 -49.5q0 -24 16 -38.5t42 -14.5z" />
    <glyph glyph-name="AE" unicode="&#xc6;" horiz-adv-x="1065" 
d="M-40 0l599 700h560l-20 -72h-409l-64 -239h364l-19 -72h-364l-66 -245h414l-19 -72h-493l50 185h-284l-158 -185h-91zM268 256h243l100 374h-25z" />
    <glyph glyph-name="Ccedilla" unicode="&#xc7;" horiz-adv-x="735" 
d="M273 -155l-66 34l109 115q-103 19 -167 94.5t-64 188.5q0 112 56 212t153.5 161.5t210.5 61.5q93 0 160 -40.5t104 -109.5l-68 -42q-35 59 -82.5 89t-120.5 30q-134 0 -232 -109t-98 -250q0 -100 61 -159.5t158 -59.5q119 0 217 95l53 -52q-117 -117 -274 -117h-7z" />
    <glyph glyph-name="Egrave" unicode="&#xc8;" horiz-adv-x="653" 
d="M428 891l66 -129h-55l-90 93zM30 0l188 700h501l-20 -72h-422l-64 -239h377l-20 -72h-376l-66 -245h427l-19 -72h-506z" />
    <glyph glyph-name="Eacute" unicode="&#xc9;" horiz-adv-x="653" 
d="M439 762l135 129l78 -36l-139 -93h-74zM30 0l188 700h501l-20 -72h-422l-64 -239h377l-20 -72h-376l-66 -245h427l-19 -72h-506z" />
    <glyph glyph-name="Ecircumflex" unicode="&#xca;" horiz-adv-x="653" 
d="M30 0l188 700h501l-20 -72h-422l-64 -239h377l-20 -72h-376l-66 -245h427l-19 -72h-506zM326 762l142 118h72l78 -118h-67l-58 60l-91 -60h-76z" />
    <glyph glyph-name="Edieresis" unicode="&#xcb;" horiz-adv-x="653" 
d="M526 762l25 90h93l-25 -90h-93zM339 762l25 90h93l-24 -90h-94zM30 0l188 700h501l-20 -72h-422l-64 -239h377l-20 -72h-376l-66 -245h427l-19 -72h-506z" />
    <glyph glyph-name="Igrave" unicode="&#xcc;" horiz-adv-x="291" 
d="M37 0l188 700h79l-188 -700h-79zM229 891l66 -129h-55l-90 93z" />
    <glyph glyph-name="Iacute" unicode="&#xcd;" horiz-adv-x="291" 
d="M37 0l188 700h79l-188 -700h-79zM241 762l135 129l78 -36l-139 -93h-74z" />
    <glyph glyph-name="Icircumflex" unicode="&#xce;" horiz-adv-x="291" 
d="M37 0l188 700h79l-188 -700h-79zM128 762l142 118h72l78 -118h-67l-58 60l-91 -60h-76z" />
    <glyph glyph-name="Idieresis" unicode="&#xcf;" horiz-adv-x="291" 
d="M37 0l188 700h79l-188 -700h-79zM328 762l25 90h93l-25 -90h-93zM141 762l25 90h93l-24 -90h-94z" />
    <glyph glyph-name="Eth" unicode="&#xd0;" horiz-adv-x="800" 
d="M57 0l85 316h-78l20 72h77l84 312h169q178 0 273 -93q76 -76 76 -201q0 -161 -110 -273q-133 -133 -359 -133h-237zM156 73h148q179 0 289 110q88 88 88 218q0 98 -59 155q-71 71 -213 71h-104l-64 -239h207l-19 -72h-208z" />
    <glyph glyph-name="Ntilde" unicode="&#xd1;" horiz-adv-x="786" 
d="M415 750l-48 15q25 53 50 77t59 24q24 0 68.5 -19.5t59.5 -19.5q19 0 31.5 10.5t28.5 36.5l49 -15q-24 -53 -49.5 -76.5t-59.5 -23.5q-24 0 -68.5 19.5t-59.5 19.5q-19 0 -31.5 -10.5t-29.5 -37.5zM30 0l188 700h73l285 -568l153 568h77l-188 -700h-63l-292 581
l-156 -581h-77z" />
    <glyph glyph-name="Ograve" unicode="&#xd2;" horiz-adv-x="842" 
d="M495 901l66 -129h-55l-90 93zM395 -13q-134 0 -220.5 87t-86.5 217q0 108 53 204.5t148 156.5t207 60q134 0 220.5 -87t86.5 -216q0 -108 -53 -205t-148 -157t-207 -60zM400 60q89 0 163.5 50t115.5 129.5t41 166.5q0 101 -63 167t-166 66q-89 0 -163.5 -50
t-115.5 -129.5t-41 -166.5q0 -101 63 -167t166 -66z" />
    <glyph glyph-name="Oacute" unicode="&#xd3;" horiz-adv-x="842" 
d="M504 772l135 129l78 -36l-139 -93h-74zM395 -13q-134 0 -220.5 87t-86.5 217q0 108 53 204.5t148 156.5t207 60q134 0 220.5 -87t86.5 -216q0 -108 -53 -205t-148 -157t-207 -60zM400 60q89 0 163.5 50t115.5 129.5t41 166.5q0 101 -63 167t-166 66q-89 0 -163.5 -50
t-115.5 -129.5t-41 -166.5q0 -101 63 -167t166 -66z" />
    <glyph glyph-name="Ocircumflex" unicode="&#xd4;" horiz-adv-x="842" 
d="M395 -13q-134 0 -220.5 87t-86.5 217q0 108 53 204.5t148 156.5t207 60q134 0 220.5 -87t86.5 -216q0 -108 -53 -205t-148 -157t-207 -60zM400 60q89 0 163.5 50t115.5 129.5t41 166.5q0 101 -63 167t-166 66q-89 0 -163.5 -50t-115.5 -129.5t-41 -166.5q0 -101 63 -167
t166 -66zM393 772l142 118h72l78 -118h-67l-58 60l-91 -60h-76z" />
    <glyph glyph-name="Otilde" unicode="&#xd5;" horiz-adv-x="842" 
d="M435 763l-48 15q25 53 50 77t59 24q24 0 68.5 -19.5t59.5 -19.5q19 0 31.5 10.5t28.5 36.5l49 -15q-24 -53 -49.5 -76.5t-59.5 -23.5q-24 0 -68.5 19.5t-59.5 19.5q-19 0 -31.5 -10.5t-29.5 -37.5zM395 -13q-134 0 -220.5 87t-86.5 217q0 108 53 204.5t148 156.5t207 60
q134 0 220.5 -87t86.5 -216q0 -108 -53 -205t-148 -157t-207 -60zM400 60q89 0 163.5 50t115.5 129.5t41 166.5q0 101 -63 167t-166 66q-89 0 -163.5 -50t-115.5 -129.5t-41 -166.5q0 -101 63 -167t166 -66z" />
    <glyph glyph-name="Odieresis" unicode="&#xd6;" horiz-adv-x="842" 
d="M593 772l25 90h93l-25 -90h-93zM406 772l25 90h93l-24 -90h-94zM395 -13q-134 0 -220.5 87t-86.5 217q0 108 53 204.5t148 156.5t207 60q134 0 220.5 -87t86.5 -216q0 -108 -53 -205t-148 -157t-207 -60zM400 60q89 0 163.5 50t115.5 129.5t41 166.5q0 101 -63 167
t-166 66q-89 0 -163.5 -50t-115.5 -129.5t-41 -166.5q0 -101 63 -167t166 -66z" />
    <glyph glyph-name="multiply" unicode="&#xd7;" horiz-adv-x="625" 
d="M456 129l-126 174l-222 -176l-41 55l223 175l-129 172l62 47l125 -175l222 177l41 -56l-223 -174l129 -172z" />
    <glyph glyph-name="Oslash" unicode="&#xd8;" horiz-adv-x="842" 
d="M395 -13q-138 0 -224 93l-100 -85h-90l153 131q-46 72 -46 165q0 108 53 204.5t148 156.5t207 60q136 0 223 -90l96 83h90l-149 -129q47 -74 47 -167q0 -108 -53 -205t-148 -157t-207 -60zM195 177l465 396q-63 68 -169 68q-134 0 -228 -106.5t-94 -241.5q0 -64 26 -116z
M400 58q134 0 228 106.5t94 241.5q0 65 -28 119l-464 -396q63 -71 170 -71z" />
    <glyph glyph-name="Ugrave" unicode="&#xd9;" horiz-adv-x="758" 
d="M452 888l66 -129h-55l-90 93zM347 -11q-122 0 -188.5 61.5t-66.5 162.5q0 55 15 109l100 378h80l-106 -399q-10 -35 -10 -79q0 -72 46.5 -116t136.5 -44q91 0 156 64q61 63 89 171l109 403h79l-112 -417q-36 -133 -110 -207q-87 -87 -218 -87z" />
    <glyph glyph-name="Uacute" unicode="&#xda;" horiz-adv-x="758" 
d="M463 759l135 129l78 -36l-139 -93h-74zM347 -11q-122 0 -188.5 61.5t-66.5 162.5q0 55 15 109l100 378h80l-106 -399q-10 -35 -10 -79q0 -72 46.5 -116t136.5 -44q91 0 156 64q61 63 89 171l109 403h79l-112 -417q-36 -133 -110 -207q-87 -87 -218 -87z" />
    <glyph glyph-name="Ucircumflex" unicode="&#xdb;" horiz-adv-x="758" 
d="M347 -11q-122 0 -188.5 61.5t-66.5 162.5q0 55 15 109l100 378h80l-106 -399q-10 -35 -10 -79q0 -72 46.5 -116t136.5 -44q91 0 156 64q61 63 89 171l109 403h79l-112 -417q-36 -133 -110 -207q-87 -87 -218 -87zM350 759l142 118h72l78 -118h-67l-58 60l-91 -60h-76z
" />
    <glyph glyph-name="Udieresis" unicode="&#xdc;" horiz-adv-x="758" 
d="M551 759l25 90h93l-25 -90h-93zM364 759l25 90h93l-24 -90h-94zM347 -11q-122 0 -188.5 61.5t-66.5 162.5q0 55 15 109l100 378h80l-106 -399q-10 -35 -10 -79q0 -72 46.5 -116t136.5 -44q91 0 156 64q61 63 89 171l109 403h79l-112 -417q-36 -133 -110 -207
q-87 -87 -218 -87z" />
    <glyph glyph-name="Yacute" unicode="&#xdd;" horiz-adv-x="663" 
d="M216 0l76 282l-173 418h88l140 -353l330 353h101l-410 -431l-72 -269h-80zM411 759l135 129l78 -36l-139 -93h-74z" />
    <glyph glyph-name="Thorn" unicode="&#xde;" horiz-adv-x="674" 
d="M265 580h140q136 0 200 -65q50 -52 50 -130q0 -120 -94 -188t-251 -68h-166l-35 -129h-79l188 700h78zM402 507h-157l-82 -308h151q124 0 191.5 47.5t67.5 133.5q0 51 -32 83q-44 44 -139 44z" />
    <glyph glyph-name="germandbls" unicode="&#xdf;" horiz-adv-x="623" 
d="M222 -2l17 64q118 0 176.5 41.5t58.5 103.5q0 99 -163 125l16 60q200 47 200 171q0 47 -33.5 76.5t-89.5 29.5q-64 0 -110 -47.5t-69 -133.5l-131 -488h-77l135 501q28 109 87 166q68 70 170 70q86 0 140.5 -48t54.5 -121q0 -149 -196 -205q144 -42 144 -157
q0 -93 -87 -151.5t-243 -56.5z" />
    <glyph glyph-name="agrave" unicode="&#xe0;" horiz-adv-x="576" 
d="M182 -11q-69 0 -116 38.5t-47 104.5q0 86 64 136.5t166 50.5q85 0 183 -28l4 14q6 21 6 46q0 104 -139 104q-73 0 -146 -27l-14 65q83 32 172 32q97 0 150 -42.5t53 -118.5q0 -31 -10 -71l-78 -293h-76l21 81q-79 -92 -193 -92zM207 50q67 0 125.5 43t76.5 110l10 36
q-86 23 -167 23q-68 0 -111 -34t-43 -87q0 -41 29.5 -66t79.5 -25zM325 595l-83 108l81 37l56 -145h-54z" />
    <glyph glyph-name="aacute" unicode="&#xe1;" horiz-adv-x="576" 
d="M182 -11q-69 0 -116 38.5t-47 104.5q0 86 64 136.5t166 50.5q85 0 183 -28l4 14q6 21 6 46q0 104 -139 104q-73 0 -146 -27l-14 65q83 32 172 32q97 0 150 -42.5t53 -118.5q0 -31 -10 -71l-78 -293h-76l21 81q-79 -92 -193 -92zM207 50q67 0 125.5 43t76.5 110l10 36
q-86 23 -167 23q-68 0 -111 -34t-43 -87q0 -41 29.5 -66t79.5 -25zM322 595l134 145l80 -37l-142 -108h-72z" />
    <glyph glyph-name="acircumflex" unicode="&#xe2;" horiz-adv-x="576" 
d="M182 -11q-69 0 -116 38.5t-47 104.5q0 86 64 136.5t166 50.5q85 0 183 -28l4 14q6 21 6 46q0 104 -139 104q-73 0 -146 -27l-14 65q83 32 172 32q97 0 150 -42.5t53 -118.5q0 -31 -10 -71l-78 -293h-76l21 81q-79 -92 -193 -92zM207 50q67 0 125.5 43t76.5 110l10 36
q-86 23 -167 23q-68 0 -111 -34t-43 -87q0 -41 29.5 -66t79.5 -25zM216 595l141 131h68l71 -131h-62l-54 67l-96 -67h-68z" />
    <glyph glyph-name="atilde" unicode="&#xe3;" horiz-adv-x="576" 
d="M182 -11q-69 0 -116 38.5t-47 104.5q0 86 64 136.5t166 50.5q85 0 183 -28l4 14q6 21 6 46q0 104 -139 104q-73 0 -146 -27l-14 65q83 32 172 32q97 0 150 -42.5t53 -118.5q0 -31 -10 -71l-78 -293h-76l21 81q-79 -92 -193 -92zM207 50q67 0 125.5 43t76.5 110l10 36
q-86 23 -167 23q-68 0 -111 -34t-43 -87q0 -41 29.5 -66t79.5 -25zM248 586l-47 14q25 57 50 80.5t61 23.5q23 0 66.5 -20t59.5 -20q19 0 32 10.5t29 38.5l47 -13q-25 -58 -50 -81.5t-61 -23.5q-23 0 -66.5 20t-59.5 20q-19 0 -32 -10.5t-29 -38.5z" />
    <glyph glyph-name="adieresis" unicode="&#xe4;" horiz-adv-x="576" 
d="M182 -11q-69 0 -116 38.5t-47 104.5q0 86 64 136.5t166 50.5q85 0 183 -28l4 14q6 21 6 46q0 104 -139 104q-73 0 -146 -27l-14 65q83 32 172 32q97 0 150 -42.5t53 -118.5q0 -31 -10 -71l-78 -293h-76l21 81q-79 -92 -193 -92zM207 50q67 0 125.5 43t76.5 110l10 36
q-86 23 -167 23q-68 0 -111 -34t-43 -87q0 -41 29.5 -66t79.5 -25zM404 595l26 95h89l-26 -95h-89zM227 595l26 95h90l-26 -95h-90z" />
    <glyph glyph-name="aring" unicode="&#xe5;" horiz-adv-x="576" 
d="M182 -11q-69 0 -116 38.5t-47 104.5q0 86 64 136.5t166 50.5q85 0 183 -28l4 14q6 21 6 46q0 104 -139 104q-73 0 -146 -27l-14 65q83 32 172 32q97 0 150 -42.5t53 -118.5q0 -31 -10 -71l-78 -293h-76l21 81q-79 -92 -193 -92zM207 50q67 0 125.5 43t76.5 110l10 36
q-86 23 -167 23q-68 0 -111 -34t-43 -87q0 -41 29.5 -66t79.5 -25zM380 593q-45 0 -74 27t-29 68q0 46 36 80t85 34q45 0 74 -27t29 -68q0 -46 -36 -80t-85 -34zM381 630q31 0 54.5 22.5t23.5 52.5q0 27 -17 43.5t-45 16.5q-32 0 -55 -22.5t-23 -52.5q0 -26 17 -43t45 -17z
" />
    <glyph glyph-name="ae" unicode="&#xe6;" horiz-adv-x="958" 
d="M445 107q-115 -118 -263 -118q-69 0 -116 38.5t-47 104.5q0 86 64 136.5t166 50.5q85 0 183 -28l4 13q6 28 6 47q0 104 -139 104q-73 0 -146 -27l-14 65q83 32 172 32q73 0 123.5 -28.5t66.5 -79.5q89 111 215 111q94 0 146.5 -56.5t52.5 -141.5q0 -50 -19 -101h-404
q-1 -6 -1 -18q0 -71 42 -113.5t114 -42.5q83 0 160 61l40 -51q-91 -77 -202 -77q-73 0 -126 31.5t-78 87.5zM507 291h333q4 20 4 39q0 57 -33 95t-96 38q-74 0 -129.5 -48.5t-78.5 -123.5zM427 237q-86 25 -175 25q-68 0 -111 -34t-43 -87q0 -41 29.5 -66t79.5 -25
q119 0 222 109q-5 30 -5 54q0 9 3 24z" />
    <glyph glyph-name="ccedilla" unicode="&#xe7;" horiz-adv-x="562" 
d="M172 -155l-66 34l111 116q-74 18 -121.5 76t-47.5 143q0 127 90.5 220.5t213.5 93.5q76 0 127 -34t79 -87l-62 -39q-55 92 -149 92q-88 0 -154 -73.5t-66 -170.5q0 -73 45 -116.5t109 -43.5q78 0 153 68l45 -50q-91 -86 -202 -86h-1z" />
    <glyph glyph-name="egrave" unicode="&#xe8;" horiz-adv-x="589" 
d="M126 229q-1 -6 -1 -18q0 -71 42 -113.5t114 -42.5q84 0 159 61l40 -51q-91 -77 -203 -77q-103 0 -166 61t-63 159q0 123 87.5 221.5t213.5 98.5q94 0 147 -56.5t53 -141.5q0 -50 -19 -101h-404zM137 291h333q4 20 4 39q0 57 -33 95t-96 38q-74 0 -129.5 -48.5
t-78.5 -123.5zM352 595l-83 108l81 37l56 -145h-54z" />
    <glyph glyph-name="eacute" unicode="&#xe9;" horiz-adv-x="589" 
d="M349 595l134 145l80 -37l-142 -108h-72zM126 229q-1 -6 -1 -18q0 -71 42 -113.5t114 -42.5q84 0 159 61l40 -51q-91 -77 -203 -77q-103 0 -166 61t-63 159q0 123 87.5 221.5t213.5 98.5q94 0 147 -56.5t53 -141.5q0 -50 -19 -101h-404zM137 291h333q4 20 4 39
q0 57 -33 95t-96 38q-74 0 -129.5 -48.5t-78.5 -123.5z" />
    <glyph glyph-name="ecircumflex" unicode="&#xea;" horiz-adv-x="589" 
d="M243 595l141 131h68l71 -131h-62l-54 67l-96 -67h-68zM126 229q-1 -6 -1 -18q0 -71 42 -113.5t114 -42.5q84 0 159 61l40 -51q-91 -77 -203 -77q-103 0 -166 61t-63 159q0 123 87.5 221.5t213.5 98.5q94 0 147 -56.5t53 -141.5q0 -50 -19 -101h-404zM137 291h333
q4 20 4 39q0 57 -33 95t-96 38q-74 0 -129.5 -48.5t-78.5 -123.5z" />
    <glyph glyph-name="edieresis" unicode="&#xeb;" horiz-adv-x="589" 
d="M432 595l26 95h89l-26 -95h-89zM255 595l26 95h90l-26 -95h-90zM126 229q-1 -6 -1 -18q0 -71 42 -113.5t114 -42.5q84 0 159 61l40 -51q-91 -77 -203 -77q-103 0 -166 61t-63 159q0 123 87.5 221.5t213.5 98.5q94 0 147 -56.5t53 -141.5q0 -50 -19 -101h-404zM137 291
h333q4 20 4 39q0 57 -33 95t-96 38q-74 0 -129.5 -48.5t-78.5 -123.5z" />
    <glyph glyph-name="igrave" unicode="&#xec;" horiz-adv-x="264" 
d="M24 0l139 517h77l-139 -517h-77zM186 595l-83 108l81 37l56 -145h-54z" />
    <glyph glyph-name="iacute" unicode="&#xed;" horiz-adv-x="264" 
d="M184 595l134 145l80 -37l-142 -108h-72zM24 0l139 517h77l-139 -517h-77z" />
    <glyph glyph-name="icircumflex" unicode="&#xee;" horiz-adv-x="264" 
d="M78 595l141 131h68l71 -131h-62l-54 67l-96 -67h-68zM24 0l139 517h77l-139 -517h-77z" />
    <glyph glyph-name="idieresis" unicode="&#xef;" horiz-adv-x="264" 
d="M267 595l26 95h89l-26 -95h-89zM90 595l26 95h90l-26 -95h-90zM24 0l139 517h77l-139 -517h-77z" />
    <glyph glyph-name="eth" unicode="&#xf0;" horiz-adv-x="631" 
d="M568 689l-102 -40q120 -180 120 -330q0 -147 -96 -243q-88 -88 -211 -88q-104 0 -167.5 65.5t-63.5 167.5q0 121 82.5 208t197.5 87q109 0 179 -96q-29 88 -110 202l-137 -54l-21 50l125 49q-17 21 -53 63h97q24 -32 26 -35l112 44zM286 56q88 0 153.5 68.5t65.5 160.5
q0 72 -47 120t-122 48q-88 0 -149 -68t-61 -160q0 -77 43 -123t117 -46z" />
    <glyph glyph-name="ntilde" unicode="&#xf1;" horiz-adv-x="613" 
d="M17 0l138 517h77l-22 -84q84 95 180 95q75 0 120 -43.5t45 -116.5q0 -30 -13 -80l-76 -288h-77l78 293q8 27 8 58q0 51 -31 79.5t-85 28.5q-60 0 -113.5 -47t-73.5 -120l-78 -292h-77zM281 586l-47 14q25 57 50 80.5t61 23.5q23 0 66.5 -20t59.5 -20q19 0 32 10.5
t29 38.5l47 -13q-25 -58 -50 -81.5t-61 -23.5q-23 0 -66.5 20t-59.5 20q-19 0 -32 -10.5t-29 -38.5z" />
    <glyph glyph-name="ograve" unicode="&#xf2;" horiz-adv-x="638" 
d="M284 -12q-105 0 -170 65t-65 167q0 122 90.5 215t213.5 93q106 0 171 -65t65 -166q0 -124 -91.5 -216.5t-213.5 -92.5zM289 57q87 0 154 72.5t67 164.5q0 78 -44.5 122t-117.5 44q-88 0 -154.5 -73.5t-66.5 -164.5q0 -77 44.5 -121t117.5 -44zM366 595l-83 108l81 37
l56 -145h-54z" />
    <glyph glyph-name="oacute" unicode="&#xf3;" horiz-adv-x="638" 
d="M362 595l134 145l80 -37l-142 -108h-72zM284 -12q-105 0 -170 65t-65 167q0 122 90.5 215t213.5 93q106 0 171 -65t65 -166q0 -124 -91.5 -216.5t-213.5 -92.5zM289 57q87 0 154 72.5t67 164.5q0 78 -44.5 122t-117.5 44q-88 0 -154.5 -73.5t-66.5 -164.5
q0 -77 44.5 -121t117.5 -44z" />
    <glyph glyph-name="ocircumflex" unicode="&#xf4;" horiz-adv-x="638" 
d="M258 595l141 131h68l71 -131h-62l-54 67l-96 -67h-68zM284 -12q-105 0 -170 65t-65 167q0 122 90.5 215t213.5 93q106 0 171 -65t65 -166q0 -124 -91.5 -216.5t-213.5 -92.5zM289 57q87 0 154 72.5t67 164.5q0 78 -44.5 122t-117.5 44q-88 0 -154.5 -73.5t-66.5 -164.5
q0 -77 44.5 -121t117.5 -44z" />
    <glyph glyph-name="otilde" unicode="&#xf5;" horiz-adv-x="638" 
d="M284 -12q-105 0 -170 65t-65 167q0 122 90.5 215t213.5 93q106 0 171 -65t65 -166q0 -124 -91.5 -216.5t-213.5 -92.5zM289 57q87 0 154 72.5t67 164.5q0 78 -44.5 122t-117.5 44q-88 0 -154.5 -73.5t-66.5 -164.5q0 -77 44.5 -121t117.5 -44zM291 586l-47 14
q25 57 50 80.5t61 23.5q23 0 66.5 -20t59.5 -20q19 0 32 10.5t29 38.5l47 -13q-25 -58 -50 -81.5t-61 -23.5q-23 0 -66.5 20t-59.5 20q-19 0 -32 -10.5t-29 -38.5z" />
    <glyph glyph-name="odieresis" unicode="&#xf6;" horiz-adv-x="638" 
d="M447 595l26 95h89l-26 -95h-89zM270 595l26 95h90l-26 -95h-90zM284 -12q-105 0 -170 65t-65 167q0 122 90.5 215t213.5 93q106 0 171 -65t65 -166q0 -124 -91.5 -216.5t-213.5 -92.5zM289 57q87 0 154 72.5t67 164.5q0 78 -44.5 122t-117.5 44q-88 0 -154.5 -73.5
t-66.5 -164.5q0 -77 44.5 -121t117.5 -44z" />
    <glyph glyph-name="divide" unicode="&#xf7;" horiz-adv-x="625" 
d="M327 499l28 104h100l-27 -104h-101zM573 317h-489l19 70h489zM221 102l28 103h100l-28 -103h-100z" />
    <glyph glyph-name="oslash" unicode="&#xf8;" horiz-adv-x="638" 
d="M284 -12q-102 0 -169 65l-70 -58h-85l120 101q-31 54 -31 124q0 122 90.5 215t213.5 93q105 0 168 -63l71 58h85l-121 -101q33 -54 33 -125q0 -124 -91.5 -216.5t-213.5 -92.5zM141 146l325 272q-43 43 -117 43q-89 0 -156 -73.5t-67 -165.5q0 -39 15 -76zM288 55
q88 0 155.5 73t67.5 166q0 44 -15 79l-326 -274q44 -44 118 -44z" />
    <glyph glyph-name="ugrave" unicode="&#xf9;" horiz-adv-x="613" 
d="M222 -11q-75 0 -119.5 43.5t-44.5 116.5q0 30 13 80l76 288h77l-79 -293q-7 -30 -7 -58q0 -51 30.5 -79.5t84.5 -28.5q61 0 114.5 47.5t72.5 120.5l78 291h77l-138 -517h-77l23 84q-84 -95 -181 -95zM350 595l-83 108l81 37l56 -145h-54z" />
    <glyph glyph-name="uacute" unicode="&#xfa;" horiz-adv-x="613" 
d="M347 595l134 145l80 -37l-142 -108h-72zM222 -11q-75 0 -119.5 43.5t-44.5 116.5q0 30 13 80l76 288h77l-79 -293q-7 -30 -7 -58q0 -51 30.5 -79.5t84.5 -28.5q61 0 114.5 47.5t72.5 120.5l78 291h77l-138 -517h-77l23 84q-84 -95 -181 -95z" />
    <glyph glyph-name="ucircumflex" unicode="&#xfb;" horiz-adv-x="613" 
d="M241 595l141 131h68l71 -131h-62l-54 67l-96 -67h-68zM222 -11q-75 0 -119.5 43.5t-44.5 116.5q0 30 13 80l76 288h77l-79 -293q-7 -30 -7 -58q0 -51 30.5 -79.5t84.5 -28.5q61 0 114.5 47.5t72.5 120.5l78 291h77l-138 -517h-77l23 84q-84 -95 -181 -95z" />
    <glyph glyph-name="udieresis" unicode="&#xfc;" horiz-adv-x="613" 
d="M430 595l26 95h89l-26 -95h-89zM253 595l26 95h90l-26 -95h-90zM222 -11q-75 0 -119.5 43.5t-44.5 116.5q0 30 13 80l76 288h77l-79 -293q-7 -30 -7 -58q0 -51 30.5 -79.5t84.5 -28.5q61 0 114.5 47.5t72.5 120.5l78 291h77l-138 -517h-77l23 84q-84 -95 -181 -95z" />
    <glyph glyph-name="yacute" unicode="&#xfd;" horiz-adv-x="574" 
d="M38 -163q-61 0 -113 36l42 58q33 -26 79 -26q67 0 135 96l-94 516h80l72 -431l278 431h87l-354 -534q-54 -79 -103.5 -112.5t-108.5 -33.5zM315 595l134 145l80 -37l-142 -108h-72z" />
    <glyph glyph-name="thorn" unicode="&#xfe;" horiz-adv-x="659" 
d="M-26 -160l239 890h77l-82 -302q88 100 196 100q89 0 147 -60.5t58 -158.5q0 -135 -87 -228t-203 -93q-139 0 -194 128l-74 -276h-77zM312 56q91 0 153.5 73t62.5 173q0 72 -40 115t-106 43q-87 0 -158.5 -74.5t-71.5 -168.5q0 -68 45 -114.5t115 -46.5z" />
    <glyph glyph-name="ydieresis" unicode="&#xff;" horiz-adv-x="574" 
d="M38 -163q-61 0 -113 36l42 58q33 -26 79 -26q67 0 135 96l-94 516h80l72 -431l278 431h87l-354 -534q-54 -79 -103.5 -112.5t-108.5 -33.5zM397 595l26 95h89l-26 -95h-89zM220 595l26 95h90l-26 -95h-90z" />
    <glyph glyph-name="Amacron" unicode="&#x100;" horiz-adv-x="761" 
d="M-40 0l508 705h76l130 -705h-81l-32 185h-382l-132 -185h-87zM229 256h319l-63 359zM366 793l17 64h329l-17 -64h-329z" />
    <glyph glyph-name="amacron" unicode="&#x101;" horiz-adv-x="576" 
d="M182 -11q-69 0 -116 38.5t-47 104.5q0 86 64 136.5t166 50.5q85 0 183 -28l4 14q6 21 6 46q0 104 -139 104q-73 0 -146 -27l-14 65q83 32 172 32q97 0 150 -42.5t53 -118.5q0 -31 -10 -71l-78 -293h-76l21 81q-79 -92 -193 -92zM207 50q67 0 125.5 43t76.5 110l10 36
q-86 23 -167 23q-68 0 -111 -34t-43 -87q0 -41 29.5 -66t79.5 -25zM207 615l17 63h319l-17 -63h-319z" />
    <glyph glyph-name="Abreve" unicode="&#x102;" horiz-adv-x="761" 
d="M-40 0l508 705h76l130 -705h-81l-32 185h-382l-132 -185h-87zM229 256h319l-63 359zM527 770q-63 0 -95.5 30.5t-22.5 83.5h56q3 -52 75 -52q70 0 102 52h63q-18 -53 -67 -83.5t-111 -30.5z" />
    <glyph glyph-name="abreve" unicode="&#x103;" horiz-adv-x="576" 
d="M182 -11q-69 0 -116 38.5t-47 104.5q0 86 64 136.5t166 50.5q85 0 183 -28l4 14q6 21 6 46q0 104 -139 104q-73 0 -146 -27l-14 65q83 32 172 32q97 0 150 -42.5t53 -118.5q0 -31 -10 -71l-78 -293h-76l21 81q-79 -92 -193 -92zM207 50q67 0 125.5 43t76.5 110l10 36
q-86 23 -167 23q-68 0 -111 -34t-43 -87q0 -41 29.5 -66t79.5 -25zM367 593q-65 0 -97 34t-24 91h56q0 -63 73 -63q69 0 108 63h60q-20 -57 -67 -91t-109 -34z" />
    <glyph glyph-name="Aogonek" unicode="&#x104;" horiz-adv-x="761" 
d="M520 -99q0 48 73 99l-32 185h-382l-132 -185h-87l508 705h76l130 -705h-14q-71 -51 -71 -84q0 -16 14.5 -24t49.5 -12l-11 -44q-5 -1 -14 -1q-108 6 -108 66zM229 256h319l-63 359z" />
    <glyph glyph-name="aogonek" unicode="&#x105;" horiz-adv-x="576" 
d="M281 -99q0 48 73 99l21 81q-79 -92 -193 -92q-69 0 -116 38.5t-47 104.5q0 86 64 136.5t166 50.5q85 0 183 -28l4 14q6 21 6 46q0 104 -139 104q-73 0 -146 -27l-14 65q83 32 172 32q97 0 150 -42.5t53 -118.5q0 -31 -10 -71l-78 -293h-9q-71 -51 -71 -84q0 -16 14.5 -24
t49.5 -12l-11 -44q-5 -1 -14 -1q-108 6 -108 66zM207 50q67 0 125.5 43t76.5 110l10 36q-86 23 -167 23q-68 0 -111 -34t-43 -87q0 -41 29.5 -66t79.5 -25z" />
    <glyph glyph-name="Cacute" unicode="&#x106;" horiz-adv-x="735" 
d="M383 -13q-127 0 -212.5 79t-85.5 211q0 112 56 212t153.5 161.5t210.5 61.5q93 0 160 -40.5t104 -109.5l-68 -42q-35 59 -82.5 89t-120.5 30q-134 0 -232 -109t-98 -250q0 -100 61 -159.5t158 -59.5q119 0 217 95l53 -52q-117 -117 -274 -117zM486 772l135 129l78 -36
l-139 -93h-74z" />
    <glyph glyph-name="cacute" unicode="&#x107;" horiz-adv-x="562" 
d="M337 595l134 145l80 -37l-142 -108h-72zM277 -12q-95 0 -162 61.5t-67 164.5q0 127 90.5 220.5t213.5 93.5q76 0 127 -34t79 -87l-62 -39q-55 92 -149 92q-88 0 -154 -73.5t-66 -170.5q0 -73 45 -116.5t109 -43.5q78 0 153 68l45 -50q-91 -86 -202 -86z" />
    <glyph glyph-name="Cdotaccent" unicode="&#x10a;" horiz-adv-x="735" 
d="M478 772l25 90h96l-25 -90h-96zM383 -13q-127 0 -212.5 79t-85.5 211q0 112 56 212t153.5 161.5t210.5 61.5q93 0 160 -40.5t104 -109.5l-68 -42q-35 59 -82.5 89t-120.5 30q-134 0 -232 -109t-98 -250q0 -100 61 -159.5t158 -59.5q119 0 217 95l53 -52
q-117 -117 -274 -117z" />
    <glyph glyph-name="cdotaccent" unicode="&#x10b;" horiz-adv-x="562" 
d="M277 -12q-95 0 -162 61.5t-67 164.5q0 127 90.5 220.5t213.5 93.5q76 0 127 -34t79 -87l-62 -39q-55 92 -149 92q-88 0 -154 -73.5t-66 -170.5q0 -73 45 -116.5t109 -43.5q78 0 153 68l45 -50q-91 -86 -202 -86zM331 594l27 98h89l-27 -98h-89z" />
    <glyph glyph-name="Ccaron" unicode="&#x10c;" horiz-adv-x="735" 
d="M383 -13q-127 0 -212.5 79t-85.5 211q0 112 56 212t153.5 161.5t210.5 61.5q93 0 160 -40.5t104 -109.5l-68 -42q-35 59 -82.5 89t-120.5 30q-134 0 -232 -109t-98 -250q0 -100 61 -159.5t158 -59.5q119 0 217 95l53 -52q-117 -117 -274 -117zM711 890l-141 -118h-73
l-78 118h67l58 -60l91 60h76z" />
    <glyph glyph-name="ccaron" unicode="&#x10d;" horiz-adv-x="562" 
d="M533 726l-142 -131h-68l-71 131h62l55 -67l96 67h68zM277 -12q-95 0 -162 61.5t-67 164.5q0 127 90.5 220.5t213.5 93.5q76 0 127 -34t79 -87l-62 -39q-55 92 -149 92q-88 0 -154 -73.5t-66 -170.5q0 -73 45 -116.5t109 -43.5q78 0 153 68l45 -50q-91 -86 -202 -86z" />
    <glyph glyph-name="Dcaron" unicode="&#x10e;" horiz-adv-x="773" 
d="M668 880l-141 -118h-73l-78 118h67l58 -60l91 60h76zM30 0l188 700h169q178 0 273 -93q76 -76 76 -201q0 -161 -110 -273q-133 -133 -359 -133h-237zM129 73h148q179 0 289 110q88 88 88 218q0 98 -59 155q-71 71 -213 71h-104z" />
    <glyph glyph-name="dcaron" unicode="&#x10f;" horiz-adv-x="659" 
d="M722 565l55 165h77v-3l-95 -162h-37zM255 -12q-89 0 -147 61t-58 158q0 135 87 228t203 93q141 0 194 -128l88 330h77l-195 -730h-77l23 88q-88 -100 -195 -100zM277 56q87 0 158.5 75t71.5 169q0 68 -45 114t-115 46q-91 0 -153.5 -73t-62.5 -173q0 -71 40.5 -114.5
t105.5 -43.5z" />
    <glyph glyph-name="Dcroat" unicode="&#x110;" horiz-adv-x="800" 
d="M57 0l85 316h-78l20 72h77l84 312h169q178 0 273 -93q76 -76 76 -201q0 -161 -110 -273q-133 -133 -359 -133h-237zM156 73h148q179 0 289 110q88 88 88 218q0 98 -59 155q-71 71 -213 71h-104l-64 -239h207l-19 -72h-208z" />
    <glyph glyph-name="dcroat" unicode="&#x111;" horiz-adv-x="659" 
d="M413 611l15 56h177l17 63h77l-17 -63h69l-15 -56h-69l-163 -611h-77l23 88q-88 -100 -195 -100q-89 0 -147 61t-58 158q0 135 87 228t203 93q141 0 194 -128l56 211h-177zM277 56q87 0 158.5 75t71.5 169q0 68 -45 114t-115 46q-91 0 -153.5 -73t-62.5 -173
q0 -71 40.5 -114.5t105.5 -43.5z" />
    <glyph glyph-name="Emacron" unicode="&#x112;" horiz-adv-x="653" 
d="M321 783l17 64h329l-17 -64h-329zM30 0l188 700h501l-20 -72h-422l-64 -239h377l-20 -72h-376l-66 -245h427l-19 -72h-506z" />
    <glyph glyph-name="emacron" unicode="&#x113;" horiz-adv-x="589" 
d="M126 229q-1 -6 -1 -18q0 -71 42 -113.5t114 -42.5q84 0 159 61l40 -51q-91 -77 -203 -77q-103 0 -166 61t-63 159q0 123 87.5 221.5t213.5 98.5q94 0 147 -56.5t53 -141.5q0 -50 -19 -101h-404zM137 291h333q4 20 4 39q0 57 -33 95t-96 38q-74 0 -129.5 -48.5
t-78.5 -123.5zM234 615l17 63h319l-17 -63h-319z" />
    <glyph glyph-name="Ebreve" unicode="&#x114;" horiz-adv-x="653" 
d="M482 760q-63 0 -95.5 30.5t-22.5 83.5h56q3 -52 75 -52q69 0 102 52h63q-18 -53 -67 -83.5t-111 -30.5zM30 0l188 700h501l-20 -72h-422l-64 -239h377l-20 -72h-376l-66 -245h427l-19 -72h-506z" />
    <glyph glyph-name="ebreve" unicode="&#x115;" horiz-adv-x="589" 
d="M126 229q-1 -6 -1 -18q0 -71 42 -113.5t114 -42.5q84 0 159 61l40 -51q-91 -77 -203 -77q-103 0 -166 61t-63 159q0 123 87.5 221.5t213.5 98.5q94 0 147 -56.5t53 -141.5q0 -50 -19 -101h-404zM137 291h333q4 20 4 39q0 57 -33 95t-96 38q-74 0 -129.5 -48.5
t-78.5 -123.5zM394 593q-65 0 -97 34t-24 91h56q0 -63 73 -63q70 0 108 63h60q-20 -57 -67 -91t-109 -34z" />
    <glyph glyph-name="Edotaccent" unicode="&#x116;" horiz-adv-x="653" 
d="M431 762l25 90h96l-25 -90h-96zM30 0l188 700h501l-20 -72h-422l-64 -239h377l-20 -72h-376l-66 -245h427l-19 -72h-506z" />
    <glyph glyph-name="edotaccent" unicode="&#x117;" horiz-adv-x="589" 
d="M126 229q-1 -6 -1 -18q0 -71 42 -113.5t114 -42.5q84 0 159 61l40 -51q-91 -77 -203 -77q-103 0 -166 61t-63 159q0 123 87.5 221.5t213.5 98.5q94 0 147 -56.5t53 -141.5q0 -50 -19 -101h-404zM137 291h333q4 20 4 39q0 57 -33 95t-96 38q-74 0 -129.5 -48.5
t-78.5 -123.5zM343 594l27 98h89l-27 -98h-89z" />
    <glyph glyph-name="Eogonek" unicode="&#x118;" horiz-adv-x="653" 
d="M30 0l188 700h501l-20 -72h-422l-64 -239h377l-20 -72h-376l-66 -245h427l-19 -72h-9q-71 -51 -71 -84q0 -16 14.5 -24t49.5 -12l-11 -44q-5 -1 -14 -1q-108 6 -108 66q0 48 72 99h-429z" />
    <glyph glyph-name="eogonek" unicode="&#x119;" horiz-adv-x="589" 
d="M277 -12q-103 0 -166 61t-63 159q0 123 87.5 221.5t213.5 98.5q94 0 147 -56.5t53 -141.5q0 -50 -19 -101h-404q-1 -6 -1 -18q0 -71 42 -113.5t114 -42.5q84 0 159 61l40 -51l-75 -57q-76 -59 -76 -92q0 -16 14.5 -24t49.5 -12l-11 -44q-6 -1 -15 -1q-107 6 -107 66
q0 45 60 90q-20 -3 -43 -3zM137 291h333q4 20 4 39q0 57 -33 95t-96 38q-74 0 -129.5 -48.5t-78.5 -123.5z" />
    <glyph glyph-name="Ecaron" unicode="&#x11a;" horiz-adv-x="653" 
d="M664 880l-141 -118h-73l-78 118h67l58 -60l91 60h76zM30 0l188 700h501l-20 -72h-422l-64 -239h377l-20 -72h-376l-66 -245h427l-19 -72h-506z" />
    <glyph glyph-name="ecaron" unicode="&#x11b;" horiz-adv-x="589" 
d="M546 726l-142 -131h-68l-71 131h62l55 -67l96 67h68zM126 229q-1 -6 -1 -18q0 -71 42 -113.5t114 -42.5q84 0 159 61l40 -51q-91 -77 -203 -77q-103 0 -166 61t-63 159q0 123 87.5 221.5t213.5 98.5q94 0 147 -56.5t53 -141.5q0 -50 -19 -101h-404zM137 291h333
q4 20 4 39q0 57 -33 95t-96 38q-74 0 -129.5 -48.5t-78.5 -123.5z" />
    <glyph glyph-name="Gbreve" unicode="&#x11e;" horiz-adv-x="784" 
d="M540 770q-63 0 -95.5 30.5t-22.5 83.5h56q3 -52 75 -52q69 0 102 52h63q-18 -53 -67 -83.5t-111 -30.5zM396 -13q-132 0 -221 80.5t-89 217.5q0 108 55.5 206t155.5 159.5t219 61.5q179 0 264 -128l-60 -47q-35 49 -83.5 76t-127.5 27q-94 0 -173 -51t-123 -132t-44 -169
q0 -106 64 -167t168 -61q102 0 181 49l55 194h-211l19 71h289l-89 -314q-117 -73 -249 -73z" />
    <glyph glyph-name="gbreve" unicode="&#x11f;" horiz-adv-x="659" 
d="M240 -162q-71 0 -138 24t-115 66l48 54q91 -78 204 -78q94 0 145 53q41 40 65 124l14 52q-91 -93 -198 -93q-86 0 -148 53t-62 142q0 125 88.5 209t201.5 84q132 0 190 -124l30 113h77l-118 -443q-30 -109 -84 -163q-73 -73 -200 -73zM287 106q87 0 154 64t67 144
q0 60 -43.5 103t-115.5 43q-85 0 -149 -62t-64 -153q0 -66 44 -102.5t107 -36.5zM422 593q-65 0 -97 34t-24 91h56q0 -63 73 -63q70 0 108 63h60q-20 -57 -67 -91t-109 -34z" />
    <glyph glyph-name="Gdotaccent" unicode="&#x120;" horiz-adv-x="784" 
d="M490 772l25 90h96l-25 -90h-96zM396 -13q-132 0 -221 80.5t-89 217.5q0 108 55.5 206t155.5 159.5t219 61.5q179 0 264 -128l-60 -47q-35 49 -83.5 76t-127.5 27q-94 0 -173 -51t-123 -132t-44 -169q0 -106 64 -167t168 -61q102 0 181 49l55 194h-211l19 71h289l-89 -314
q-117 -73 -249 -73z" />
    <glyph glyph-name="gdotaccent" unicode="&#x121;" horiz-adv-x="659" 
d="M240 -162q-71 0 -138 24t-115 66l48 54q91 -78 204 -78q94 0 145 53q41 40 65 124l14 52q-91 -93 -198 -93q-86 0 -148 53t-62 142q0 125 88.5 209t201.5 84q132 0 190 -124l30 113h77l-118 -443q-30 -109 -84 -163q-73 -73 -200 -73zM287 106q87 0 154 64t67 144
q0 60 -43.5 103t-115.5 43q-85 0 -149 -62t-64 -153q0 -66 44 -102.5t107 -36.5zM372 594l27 98h89l-27 -98h-89z" />
    <glyph glyph-name="Gcommaaccent" unicode="&#x122;" horiz-adv-x="784" 
d="M237 -244l1 30q65 10 78 60h-41l22 83h90l-19 -71q-14 -51 -45 -74t-86 -28zM396 -13q-132 0 -221 80.5t-89 217.5q0 108 55.5 206t155.5 159.5t219 61.5q179 0 264 -128l-60 -47q-35 49 -83.5 76t-127.5 27q-94 0 -173 -51t-123 -132t-44 -169q0 -106 64 -167t168 -61
q102 0 181 49l55 194h-211l19 71h289l-89 -314q-117 -73 -249 -73z" />
    <glyph glyph-name="gcommaaccent" unicode="&#x123;" horiz-adv-x="659" 
d="M518 766l-1 -30q-65 -10 -78 -60h41l-22 -83h-90l19 71q14 51 45 74t86 28zM240 -162q-71 0 -138 24t-115 66l48 54q91 -78 204 -78q94 0 145 53q41 40 65 124l14 52q-91 -93 -198 -93q-86 0 -148 53t-62 142q0 125 88.5 209t201.5 84q132 0 190 -124l30 113h77
l-118 -443q-30 -109 -84 -163q-73 -73 -200 -73zM287 106q87 0 154 64t67 144q0 60 -43.5 103t-115.5 43q-85 0 -149 -62t-64 -153q0 -66 44 -102.5t107 -36.5z" />
    <glyph glyph-name="Hbar" unicode="&#x126;" horiz-adv-x="756" 
d="M93 510l16 61h74l35 129h79l-35 -129h399l35 129h80l-35 -129h74l-17 -61h-73l-137 -510h-80l84 312h-399l-84 -312h-79l137 510h-74zM213 385h399l33 125h-399z" />
    <glyph glyph-name="hbar" unicode="&#x127;" horiz-adv-x="613" 
d="M17 0l164 611h-69l15 56h69l17 63h77l-17 -63h177l-15 -56h-177l-48 -178q84 95 180 95q75 0 120 -43.5t45 -116.5q0 -30 -13 -80l-76 -288h-77l78 293q8 27 8 58q0 51 -31 79.5t-85 28.5q-60 0 -113.5 -47t-73.5 -120l-78 -292h-77z" />
    <glyph glyph-name="Imacron" unicode="&#x12a;" horiz-adv-x="291" 
d="M37 0l188 700h79l-188 -700h-79zM123 783l17 64h329l-17 -64h-329z" />
    <glyph glyph-name="imacron" unicode="&#x12b;" horiz-adv-x="264" 
d="M24 0l139 517h77l-139 -517h-77zM69 615l17 63h319l-17 -63h-319z" />
    <glyph glyph-name="Ibreve" unicode="&#x12c;" horiz-adv-x="291" 
d="M37 0l188 700h79l-188 -700h-79zM283 760q-63 0 -95.5 30.5t-22.5 83.5h56q3 -52 75 -52q70 0 102 52h63q-18 -53 -67 -83.5t-111 -30.5z" />
    <glyph glyph-name="ibreve" unicode="&#x12d;" horiz-adv-x="264" 
d="M24 0l139 517h77l-139 -517h-77zM228 593q-65 0 -97 34t-24 91h56q0 -63 73 -63q70 0 108 63h60q-20 -57 -67 -91t-109 -34z" />
    <glyph glyph-name="Iogonek" unicode="&#x12e;" horiz-adv-x="291" 
d="M37 0l188 700h79l-188 -700h-7q-71 -51 -71 -84q0 -16 14.5 -24t49.5 -12l-11 -44q-5 -1 -14 -1q-108 6 -108 66q0 48 72 99h-4z" />
    <glyph glyph-name="iogonek" unicode="&#x12f;" horiz-adv-x="264" 
d="M24 0l139 517h77l-139 -517h-7q-71 -51 -71 -84q0 -16 14.5 -24t49.5 -12l-11 -44q-5 -1 -14 -1q-108 6 -108 66q0 48 72 99h-2zM188 630l23 85h88l-23 -85h-88z" />
    <glyph glyph-name="Idotaccent" unicode="&#x130;" horiz-adv-x="291" 
d="M37 0l188 700h79l-188 -700h-79zM233 762l25 90h96l-25 -90h-96z" />
    <glyph glyph-name="dotlessi" unicode="&#x131;" horiz-adv-x="264" 
d="M24 0l139 517h77l-139 -517h-77z" />
    <glyph glyph-name="Kcommaaccent" unicode="&#x136;" horiz-adv-x="718" 
d="M188 -238l1 30q65 10 78 60h-41l22 83h90l-19 -71q-14 -51 -45 -74t-86 -28zM30 0l188 700h79l-111 -416l502 416h112l-376 -308l199 -392h-89l-174 346l-203 -167l-48 -179h-79z" />
    <glyph glyph-name="kcommaaccent" unicode="&#x137;" horiz-adv-x="568" 
d="M104 -243l1 30q65 10 78 60h-41l22 83h90l-19 -71q-14 -51 -45 -74t-86 -28zM17 0l196 730h77l-133 -497l348 284h105l-277 -223l142 -294h-87l-120 245l-138 -110l-36 -135h-77z" />
    <glyph glyph-name="Lacute" unicode="&#x139;" horiz-adv-x="607" 
d="M250 762l135 129l78 -36l-139 -93h-74zM30 0l188 700h79l-168 -627h394l-20 -73h-473z" />
    <glyph glyph-name="lacute" unicode="&#x13a;" horiz-adv-x="264" 
d="M241 782l135 129l78 -36l-139 -93h-74zM24 0l196 730h77l-196 -730h-77z" />
    <glyph glyph-name="Lcommaaccent" unicode="&#x13b;" horiz-adv-x="607" 
d="M133 -243l1 30q65 10 78 60h-41l22 83h90l-19 -71q-14 -51 -45 -74t-86 -28zM30 0l188 700h79l-168 -627h394l-20 -73h-473z" />
    <glyph glyph-name="lcommaaccent" unicode="&#x13c;" horiz-adv-x="264" 
d="M-53 -243l1 30q65 10 78 60h-41l22 83h90l-19 -71q-14 -51 -45 -74t-86 -28zM24 0l196 730h77l-196 -730h-77z" />
    <glyph glyph-name="Lcaron" unicode="&#x13d;" horiz-adv-x="607" 
d="M329 535l55 165h77v-3l-95 -162h-37zM30 0l188 700h79l-168 -627h394l-20 -73h-473z" />
    <glyph glyph-name="lcaron" unicode="&#x13e;" horiz-adv-x="264" 
d="M320 565l55 165h77v-3l-95 -162h-37zM24 0l196 730h77l-196 -730h-77z" />
    <glyph glyph-name="Ldot" unicode="&#x13f;" horiz-adv-x="621" 
d="M436 320l26 96h91l-26 -96h-91zM30 0l188 700h79l-168 -627h394l-20 -73h-473z" />
    <glyph glyph-name="ldot" unicode="&#x140;" horiz-adv-x="332" 
d="M273 323l25 92h84l-24 -92h-85zM24 0l196 730h77l-196 -730h-77z" />
    <glyph glyph-name="Lslash" unicode="&#x141;" horiz-adv-x="652" 
d="M474 391l-234 -66l-67 -252h394l-20 -73h-473l81 301l-80 -22l19 73l80 23l88 325h79l-81 -301l234 66z" />
    <glyph glyph-name="lslash" unicode="&#x142;" horiz-adv-x="323" 
d="M306 367l-83 -24l-92 -343h-77l86 320l-81 -23l20 75l81 23l90 335h77l-84 -312l83 24z" />
    <glyph glyph-name="Nacute" unicode="&#x143;" horiz-adv-x="786" 
d="M487 759l135 129l78 -36l-139 -93h-74zM30 0l188 700h73l285 -568l153 568h77l-188 -700h-63l-292 581l-156 -581h-77z" />
    <glyph glyph-name="nacute" unicode="&#x144;" horiz-adv-x="613" 
d="M355 595l134 145l80 -37l-142 -108h-72zM17 0l138 517h77l-22 -84q84 95 180 95q75 0 120 -43.5t45 -116.5q0 -30 -13 -80l-76 -288h-77l78 293q8 27 8 58q0 51 -31 79.5t-85 28.5q-60 0 -113.5 -47t-73.5 -120l-78 -292h-77z" />
    <glyph glyph-name="Ncommaaccent" unicode="&#x145;" horiz-adv-x="786" 
d="M208 -238l1 30q65 10 78 60h-41l22 83h90l-19 -71q-14 -51 -45 -74t-86 -28zM30 0l188 700h73l285 -568l153 568h77l-188 -700h-63l-292 581l-156 -581h-77z" />
    <glyph glyph-name="ncommaaccent" unicode="&#x146;" horiz-adv-x="613" 
d="M118 -243l1 30q65 10 78 60h-41l22 83h90l-19 -71q-14 -51 -45 -74t-86 -28zM17 0l138 517h77l-22 -84q84 95 180 95q75 0 120 -43.5t45 -116.5q0 -30 -13 -80l-76 -288h-77l78 293q8 27 8 58q0 51 -31 79.5t-85 28.5q-60 0 -113.5 -47t-73.5 -120l-78 -292h-77z" />
    <glyph glyph-name="Ncaron" unicode="&#x147;" horiz-adv-x="786" 
d="M711 877l-141 -118h-73l-78 118h67l58 -60l91 60h76zM30 0l188 700h73l285 -568l153 568h77l-188 -700h-63l-292 581l-156 -581h-77z" />
    <glyph glyph-name="ncaron" unicode="&#x148;" horiz-adv-x="613" 
d="M551 726l-142 -131h-68l-71 131h62l55 -67l96 67h68zM17 0l138 517h77l-22 -84q84 95 180 95q75 0 120 -43.5t45 -116.5q0 -30 -13 -80l-76 -288h-77l78 293q8 27 8 58q0 51 -31 79.5t-85 28.5q-60 0 -113.5 -47t-73.5 -120l-78 -292h-77z" />
    <glyph glyph-name="Omacron" unicode="&#x14c;" horiz-adv-x="842" 
d="M388 793l17 64h329l-17 -64h-329zM395 -13q-134 0 -220.5 87t-86.5 217q0 108 53 204.5t148 156.5t207 60q134 0 220.5 -87t86.5 -216q0 -108 -53 -205t-148 -157t-207 -60zM400 60q89 0 163.5 50t115.5 129.5t41 166.5q0 101 -63 167t-166 66q-89 0 -163.5 -50
t-115.5 -129.5t-41 -166.5q0 -101 63 -167t166 -66z" />
    <glyph glyph-name="omacron" unicode="&#x14d;" horiz-adv-x="638" 
d="M249 615l17 63h319l-17 -63h-319zM284 -12q-105 0 -170 65t-65 167q0 122 90.5 215t213.5 93q106 0 171 -65t65 -166q0 -124 -91.5 -216.5t-213.5 -92.5zM289 57q87 0 154 72.5t67 164.5q0 78 -44.5 122t-117.5 44q-88 0 -154.5 -73.5t-66.5 -164.5q0 -77 44.5 -121
t117.5 -44z" />
    <glyph glyph-name="Obreve" unicode="&#x14e;" horiz-adv-x="842" 
d="M548 770q-63 0 -95.5 30.5t-22.5 83.5h56q3 -52 75 -52q69 0 102 52h63q-18 -53 -67 -83.5t-111 -30.5zM395 -13q-134 0 -220.5 87t-86.5 217q0 108 53 204.5t148 156.5t207 60q134 0 220.5 -87t86.5 -216q0 -108 -53 -205t-148 -157t-207 -60zM400 60q89 0 163.5 50
t115.5 129.5t41 166.5q0 101 -63 167t-166 66q-89 0 -163.5 -50t-115.5 -129.5t-41 -166.5q0 -101 63 -167t166 -66z" />
    <glyph glyph-name="obreve" unicode="&#x14f;" horiz-adv-x="638" 
d="M284 -12q-105 0 -170 65t-65 167q0 122 90.5 215t213.5 93q106 0 171 -65t65 -166q0 -124 -91.5 -216.5t-213.5 -92.5zM289 57q87 0 154 72.5t67 164.5q0 78 -44.5 122t-117.5 44q-88 0 -154.5 -73.5t-66.5 -164.5q0 -77 44.5 -121t117.5 -44zM409 593q-65 0 -97 34
t-24 91h56q0 -63 73 -63q69 0 108 63h60q-20 -57 -67 -91t-109 -34z" />
    <glyph glyph-name="Ohungarumlaut" unicode="&#x150;" horiz-adv-x="842" 
d="M395 -13q-134 0 -220.5 87t-86.5 217q0 108 53 204.5t148 156.5t207 60q134 0 220.5 -87t86.5 -216q0 -108 -53 -205t-148 -157t-207 -60zM400 60q89 0 163.5 50t115.5 129.5t41 166.5q0 101 -63 167t-166 66q-89 0 -163.5 -50t-115.5 -129.5t-41 -166.5q0 -101 63 -167
t166 -66zM413 772l135 129l77 -36l-140 -93h-72zM568 772l135 129l77 -36l-140 -93h-72z" />
    <glyph glyph-name="ohungarumlaut" unicode="&#x151;" horiz-adv-x="638" 
d="M428 595l135 145l65 -37l-139 -108h-61zM264 595l135 145l64 -37l-137 -108h-62zM284 -12q-105 0 -170 65t-65 167q0 122 90.5 215t213.5 93q106 0 171 -65t65 -166q0 -124 -91.5 -216.5t-213.5 -92.5zM289 57q87 0 154 72.5t67 164.5q0 78 -44.5 122t-117.5 44
q-88 0 -154.5 -73.5t-66.5 -164.5q0 -77 44.5 -121t117.5 -44z" />
    <glyph glyph-name="OE" unicode="&#x152;" horiz-adv-x="1132" 
d="M435 0q-180 0 -274 94q-76 76 -76 200q0 160 111 273q133 133 359 133h630l-19 -72h-409l-64 -239h363l-19 -72h-363l-66 -245h414l-20 -72h-567zM440 73h89l149 554h-133q-178 0 -290 -110q-87 -87 -87 -218q0 -97 58 -155q73 -71 214 -71z" />
    <glyph glyph-name="oe" unicode="&#x153;" horiz-adv-x="1041" 
d="M579 229q-1 -6 -1 -18q0 -71 42 -113.5t114 -42.5q84 0 159 61l41 -51q-91 -77 -202 -77q-78 0 -133.5 38t-74.5 102q-41 -63 -102.5 -101.5t-139.5 -38.5q-103 0 -168 65.5t-65 166.5q0 122 90.5 215t213.5 93q81 0 135.5 -41t73.5 -106q89 147 240 147q94 0 147 -56.5
t53 -141.5q0 -50 -19 -101h-404zM590 291h333q4 20 4 39q0 57 -33 95t-96 38q-74 0 -129.5 -48.5t-78.5 -123.5zM289 57q87 0 154 70.5t67 162.5q0 79 -44.5 124.5t-117.5 45.5q-89 0 -155 -72.5t-66 -164.5q0 -77 44.5 -121.5t117.5 -44.5z" />
    <glyph glyph-name="Racute" unicode="&#x154;" horiz-adv-x="717" 
d="M30 0l188 700h252q131 0 197 -64q46 -48 46 -121q0 -88 -62 -152q-65 -65 -194 -83l144 -280h-91l-138 272h-190l-73 -272h-79zM201 343h190q135 0 199 64q42 44 42 102q0 47 -29 76q-42 42 -137 42h-188zM418 762l135 129l78 -36l-139 -93h-74z" />
    <glyph glyph-name="racute" unicode="&#x155;" horiz-adv-x="402" 
d="M251 595l134 145l80 -37l-142 -108h-72zM17 0l138 517h77l-35 -135q106 152 246 144l-22 -83h-5q-89 0 -163 -63t-104 -176l-55 -204h-77z" />
    <glyph glyph-name="Rcommaaccent" unicode="&#x156;" horiz-adv-x="717" 
d="M173 -238l1 30q65 10 78 60h-41l22 83h90l-19 -71q-14 -51 -45 -74t-86 -28zM30 0l188 700h252q131 0 197 -64q46 -48 46 -121q0 -88 -62 -152q-65 -65 -194 -83l144 -280h-91l-138 272h-190l-73 -272h-79zM201 343h190q135 0 199 64q42 44 42 102q0 47 -29 76
q-42 42 -137 42h-188z" />
    <glyph glyph-name="rcommaaccent" unicode="&#x157;" horiz-adv-x="402" 
d="M-53 -243l1 30q65 10 78 60h-41l22 83h90l-19 -71q-14 -51 -45 -74t-86 -28zM17 0l138 517h77l-35 -135q106 152 246 144l-22 -83h-5q-89 0 -163 -63t-104 -176l-55 -204h-77z" />
    <glyph glyph-name="Rcaron" unicode="&#x158;" horiz-adv-x="717" 
d="M643 880l-141 -118h-73l-78 118h67l58 -60l91 60h76zM30 0l188 700h252q131 0 197 -64q46 -48 46 -121q0 -88 -62 -152q-65 -65 -194 -83l144 -280h-91l-138 272h-190l-73 -272h-79zM201 343h190q135 0 199 64q42 44 42 102q0 47 -29 76q-42 42 -137 42h-188z" />
    <glyph glyph-name="rcaron" unicode="&#x159;" horiz-adv-x="402" 
d="M448 726l-142 -131h-68l-71 131h62l55 -67l96 67h68zM17 0l138 517h77l-35 -135q106 152 246 144l-22 -83h-5q-89 0 -163 -63t-104 -176l-55 -204h-77z" />
    <glyph glyph-name="Sacute" unicode="&#x15a;" horiz-adv-x="637" 
d="M298 -10q-190 0 -286 133l60 47q89 -109 231 -109q76 0 126.5 37t50.5 94q0 40 -31.5 68t-112.5 60q-103 41 -147.5 81.5t-44.5 105.5q0 87 72.5 145t185.5 58q157 0 248 -106l-58 -52q-79 87 -197 87q-76 0 -122 -36.5t-46 -86.5q0 -41 34 -68t121 -61q94 -36 137.5 -78
t43.5 -107q0 -92 -76 -152t-189 -60zM403 772l135 129l78 -36l-139 -93h-74z" />
    <glyph glyph-name="sacute" unicode="&#x15b;" horiz-adv-x="496" 
d="M288 595l134 145l80 -37l-142 -108h-72zM217 -11q-133 0 -223 90l50 50q79 -76 180 -76q46 0 80 24t34 62q0 26 -21.5 46.5t-76.5 41.5q-76 30 -111 60.5t-35 81.5q0 68 54 113.5t142 45.5q54 0 105 -20.5t86 -50.5l-45 -53q-74 60 -153 60q-52 0 -82 -24t-30 -58
q0 -26 21.5 -45.5t81.5 -42.5q74 -30 107.5 -62t33.5 -80q0 -71 -57 -117t-141 -46z" />
    <glyph glyph-name="Scedilla" unicode="&#x15e;" horiz-adv-x="637" 
d="M185 -155l-66 34l111 116q-141 20 -218 128l60 47q89 -109 231 -109q76 0 126.5 37t50.5 94q0 40 -31.5 68t-112.5 60q-103 41 -147.5 81.5t-44.5 105.5q0 87 72.5 145t185.5 58q157 0 248 -106l-58 -52q-79 87 -197 87q-76 0 -122 -36.5t-46 -86.5q0 -41 34 -68t121 -61
q94 -36 137.5 -78t43.5 -107q0 -92 -76 -152t-189 -60h-8z" />
    <glyph glyph-name="scedilla" unicode="&#x15f;" horiz-adv-x="496" 
d="M109 -155l-66 34l111 116q-95 18 -160 84l50 50q79 -76 180 -76q46 0 80 24t34 62q0 26 -21.5 46.5t-76.5 41.5q-76 30 -111 60.5t-35 81.5q0 68 54 113.5t142 45.5q54 0 105 -20.5t86 -50.5l-45 -53q-74 60 -153 60q-52 0 -82 -24t-30 -58q0 -26 21.5 -45.5t81.5 -42.5
q74 -30 107.5 -62t33.5 -80q0 -71 -57 -117t-141 -46h-4z" />
    <glyph glyph-name="Scaron" unicode="&#x160;" horiz-adv-x="637" 
d="M298 -10q-190 0 -286 133l60 47q89 -109 231 -109q76 0 126.5 37t50.5 94q0 40 -31.5 68t-112.5 60q-103 41 -147.5 81.5t-44.5 105.5q0 87 72.5 145t185.5 58q157 0 248 -106l-58 -52q-79 87 -197 87q-76 0 -122 -36.5t-46 -86.5q0 -41 34 -68t121 -61q94 -36 137.5 -78
t43.5 -107q0 -92 -76 -152t-189 -60zM627 890l-141 -118h-73l-78 118h67l58 -60l91 60h76z" />
    <glyph glyph-name="scaron" unicode="&#x161;" horiz-adv-x="496" 
d="M485 726l-142 -131h-68l-71 131h62l55 -67l96 67h68zM217 -11q-133 0 -223 90l50 50q79 -76 180 -76q46 0 80 24t34 62q0 26 -21.5 46.5t-76.5 41.5q-76 30 -111 60.5t-35 81.5q0 68 54 113.5t142 45.5q54 0 105 -20.5t86 -50.5l-45 -53q-74 60 -153 60q-52 0 -82 -24
t-30 -58q0 -26 21.5 -45.5t81.5 -42.5q74 -30 107.5 -62t33.5 -80q0 -71 -57 -117t-141 -46z" />
    <glyph glyph-name="Tcommaaccent" unicode="&#x162;" horiz-adv-x="616" 
d="M119 -243l1 30q65 10 78 60h-41l22 83h90l-19 -71q-14 -51 -45 -74t-86 -28zM196 0l168 627h-236l20 73h551l-20 -73h-236l-168 -627h-79z" />
    <glyph glyph-name="tcommaaccent" unicode="&#x163;" horiz-adv-x="401" 
d="M44 -243l1 30q65 10 78 60h-41l22 83h90l-19 -71q-14 -51 -45 -74t-86 -28zM202 -9q-57 0 -91.5 26.5t-34.5 75.5q0 26 7 54l81 302h-71l18 68h72l42 156h76l-42 -156h163l-18 -68h-163l-80 -298q-4 -24 -4 -38q0 -53 71 -53q34 0 75 16l-19 -70q-37 -15 -82 -15z" />
    <glyph glyph-name="Tcaron" unicode="&#x164;" horiz-adv-x="616" 
d="M624 880l-141 -118h-73l-78 118h67l58 -60l91 60h76zM196 0l168 627h-236l20 73h551l-20 -73h-236l-168 -627h-79z" />
    <glyph glyph-name="tcaron" unicode="&#x165;" horiz-adv-x="401" 
d="M358 588l55 165h77v-3l-95 -162h-37zM202 -9q-57 0 -91.5 26.5t-34.5 75.5q0 26 7 54l81 302h-71l18 68h72l42 156h76l-42 -156h163l-18 -68h-163l-80 -298q-4 -24 -4 -38q0 -53 71 -53q34 0 75 16l-19 -70q-37 -15 -82 -15z" />
    <glyph glyph-name="Umacron" unicode="&#x16a;" horiz-adv-x="758" 
d="M345 780l17 64h329l-17 -64h-329zM347 -11q-122 0 -188.5 61.5t-66.5 162.5q0 55 15 109l100 378h80l-106 -399q-10 -35 -10 -79q0 -72 46.5 -116t136.5 -44q91 0 156 64q61 63 89 171l109 403h79l-112 -417q-36 -133 -110 -207q-87 -87 -218 -87z" />
    <glyph glyph-name="umacron" unicode="&#x16b;" horiz-adv-x="613" 
d="M222 -11q-75 0 -119.5 43.5t-44.5 116.5q0 30 13 80l76 288h77l-79 -293q-7 -30 -7 -58q0 -51 30.5 -79.5t84.5 -28.5q61 0 114.5 47.5t72.5 120.5l78 291h77l-138 -517h-77l23 84q-84 -95 -181 -95zM232 615l17 63h319l-17 -63h-319z" />
    <glyph glyph-name="Ubreve" unicode="&#x16c;" horiz-adv-x="758" 
d="M505 754q-63 0 -95.5 30.5t-22.5 83.5h56q3 -52 75 -52q70 0 102 52h63q-18 -53 -67 -83.5t-111 -30.5zM347 -11q-122 0 -188.5 61.5t-66.5 162.5q0 55 15 109l100 378h80l-106 -399q-10 -35 -10 -79q0 -72 46.5 -116t136.5 -44q91 0 156 64q61 63 89 171l109 403h79
l-112 -417q-36 -133 -110 -207q-87 -87 -218 -87z" />
    <glyph glyph-name="ubreve" unicode="&#x16d;" horiz-adv-x="613" 
d="M222 -11q-75 0 -119.5 43.5t-44.5 116.5q0 30 13 80l76 288h77l-79 -293q-7 -30 -7 -58q0 -51 30.5 -79.5t84.5 -28.5q61 0 114.5 47.5t72.5 120.5l78 291h77l-138 -517h-77l23 84q-84 -95 -181 -95zM392 593q-65 0 -97 34t-24 91h56q0 -63 73 -63q70 0 108 63h60
q-20 -57 -67 -91t-109 -34z" />
    <glyph glyph-name="Uring" unicode="&#x16e;" horiz-adv-x="758" 
d="M347 -11q-122 0 -188.5 61.5t-66.5 162.5q0 55 15 109l100 378h80l-106 -399q-10 -35 -10 -79q0 -72 46.5 -116t136.5 -44q91 0 156 64q61 63 89 171l109 403h79l-112 -417q-36 -133 -110 -207q-87 -87 -218 -87zM514 743q-43 0 -71 24.5t-28 62.5q0 47 36.5 79t88.5 32
q43 0 71 -24.5t28 -61.5q0 -47 -36.5 -79.5t-88.5 -32.5zM518 781q31 0 53.5 20.5t22.5 49.5q0 23 -15.5 38t-42.5 15q-31 0 -53.5 -20.5t-22.5 -49.5q0 -24 16 -38.5t42 -14.5z" />
    <glyph glyph-name="uring" unicode="&#x16f;" horiz-adv-x="613" 
d="M402 586q-45 0 -74 27t-29 68q0 46 36 80t85 34q45 0 74 -27t29 -68q0 -46 -36 -80t-85 -34zM403 623q31 0 54.5 22.5t23.5 52.5q0 27 -17 43.5t-45 16.5q-32 0 -55 -22.5t-23 -52.5q0 -26 17 -43t45 -17zM222 -11q-75 0 -119.5 43.5t-44.5 116.5q0 30 13 80l76 288h77
l-79 -293q-7 -30 -7 -58q0 -51 30.5 -79.5t84.5 -28.5q61 0 114.5 47.5t72.5 120.5l78 291h77l-138 -517h-77l23 84q-84 -95 -181 -95z" />
    <glyph glyph-name="Uhungarumlaut" unicode="&#x170;" horiz-adv-x="758" 
d="M347 -11q-122 0 -188.5 61.5t-66.5 162.5q0 55 15 109l100 378h80l-106 -399q-10 -35 -10 -79q0 -72 46.5 -116t136.5 -44q91 0 156 64q61 63 89 171l109 403h79l-112 -417q-36 -133 -110 -207q-87 -87 -218 -87zM370 759l135 129l77 -36l-140 -93h-72zM525 759l135 129
l77 -36l-140 -93h-72z" />
    <glyph glyph-name="uhungarumlaut" unicode="&#x171;" horiz-adv-x="613" 
d="M222 -11q-75 0 -119.5 43.5t-44.5 116.5q0 30 13 80l76 288h77l-79 -293q-7 -30 -7 -58q0 -51 30.5 -79.5t84.5 -28.5q61 0 114.5 47.5t72.5 120.5l78 291h77l-138 -517h-77l23 84q-84 -95 -181 -95zM411 595l135 145l65 -37l-139 -108h-61zM247 595l135 145l64 -37
l-137 -108h-62z" />
    <glyph glyph-name="Uogonek" unicode="&#x172;" horiz-adv-x="758" 
d="M347 -11h-3q-56 -43 -56 -73q0 -16 14.5 -24t49.5 -12l-11 -44q-5 -1 -14 -1q-108 6 -108 66q0 44 64 93q-92 15 -141.5 74t-49.5 145q0 55 15 109l100 378h80l-106 -399q-10 -35 -10 -79q0 -72 46.5 -116t136.5 -44q91 0 156 64q61 63 89 171l109 403h79l-112 -417
q-36 -133 -110 -207q-87 -87 -218 -87z" />
    <glyph glyph-name="uogonek" unicode="&#x173;" horiz-adv-x="613" 
d="M222 -11q-75 0 -119.5 43.5t-44.5 116.5q0 30 13 80l76 288h77l-79 -293q-7 -30 -7 -58q0 -51 30.5 -79.5t84.5 -28.5q61 0 114.5 47.5t72.5 120.5l78 291h77l-138 -517h-8q-71 -51 -71 -84q0 -16 14.5 -24t49.5 -12l-11 -44q-5 -1 -14 -1q-108 6 -108 66q0 48 72 99h-1
l23 84q-84 -95 -181 -95z" />
    <glyph glyph-name="Wcircumflex" unicode="&#x174;" horiz-adv-x="1083" 
d="M206 -5l-61 705h82l44 -583l347 585h65l37 -585l356 583h89l-439 -705h-69l-40 565l-343 -565h-68zM511 762l142 118h72l78 -118h-67l-58 60l-91 -60h-76z" />
    <glyph glyph-name="wcircumflex" unicode="&#x175;" horiz-adv-x="848" 
d="M359 595l141 131h68l71 -131h-62l-54 67l-96 -67h-68zM137 -4l-41 521h78l27 -412l250 414h64l29 -414l249 412h80l-322 -521h-68l-30 408l-249 -408h-67z" />
    <glyph glyph-name="Ycircumflex" unicode="&#x176;" horiz-adv-x="663" 
d="M216 0l76 282l-173 418h88l140 -353l330 353h101l-410 -431l-72 -269h-80zM297 759l142 118h72l78 -118h-67l-58 60l-91 -60h-76z" />
    <glyph glyph-name="ycircumflex" unicode="&#x177;" horiz-adv-x="574" 
d="M38 -163q-61 0 -113 36l42 58q33 -26 79 -26q67 0 135 96l-94 516h80l72 -431l278 431h87l-354 -534q-54 -79 -103.5 -112.5t-108.5 -33.5zM208 595l141 131h68l71 -131h-62l-54 67l-96 -67h-68z" />
    <glyph glyph-name="Ydieresis" unicode="&#x178;" horiz-adv-x="663" 
d="M216 0l76 282l-173 418h88l140 -353l330 353h101l-410 -431l-72 -269h-80zM497 759l25 90h93l-25 -90h-93zM310 759l25 90h93l-24 -90h-94z" />
    <glyph glyph-name="Zacute" unicode="&#x179;" horiz-adv-x="669" 
d="M-19 0l14 53l597 576h-427l20 71h542l-14 -53l-598 -576h446l-19 -71h-561zM408 762l135 129l78 -36l-139 -93h-74z" />
    <glyph glyph-name="zacute" unicode="&#x17a;" horiz-adv-x="549" 
d="M307 595l134 145l80 -37l-142 -108h-72zM-20 0l14 49l441 403h-321l18 65h432l-14 -49l-442 -403h338l-18 -65h-448z" />
    <glyph glyph-name="Zdotaccent" unicode="&#x17b;" horiz-adv-x="669" 
d="M400 762l25 90h96l-25 -90h-96zM-19 0l14 53l597 576h-427l20 71h542l-14 -53l-598 -576h446l-19 -71h-561z" />
    <glyph glyph-name="zdotaccent" unicode="&#x17c;" horiz-adv-x="549" 
d="M-20 0l14 49l441 403h-321l18 65h432l-14 -49l-442 -403h338l-18 -65h-448zM301 594l27 98h89l-27 -98h-89z" />
    <glyph glyph-name="Zcaron" unicode="&#x17d;" horiz-adv-x="669" 
d="M633 880l-141 -118h-73l-78 118h67l58 -60l91 60h76zM-19 0l14 53l597 576h-427l20 71h542l-14 -53l-598 -576h446l-19 -71h-561z" />
    <glyph glyph-name="zcaron" unicode="&#x17e;" horiz-adv-x="549" 
d="M504 726l-142 -131h-68l-71 131h62l55 -67l96 67h68zM-20 0l14 49l441 403h-321l18 65h432l-14 -49l-442 -403h338l-18 -65h-448z" />
    <glyph glyph-name="florin" unicode="&#x192;" horiz-adv-x="531" 
d="M41 -10q-37 0 -66 9l19 64q26 -7 47 -7q60 0 102 95l98 222h-97l18 67h108l54 121q65 149 185 149q51 0 93 -17l-20 -64q-35 14 -72 14q-73 0 -119 -103l-44 -100h150l-17 -67h-162l-107 -243q-33 -76 -74.5 -108t-95.5 -32z" />
    <glyph glyph-name="Aringacute" unicode="&#x1fa;" horiz-adv-x="761" 
d="M-40 0l482 669q-37 24 -37 68q0 47 36.5 79.5t88.5 32.5q43 0 71.5 -24.5t28.5 -62.5q0 -35 -21.5 -62.5t-56.5 -40.5l122 -659h-81l-32 185h-382l-132 -185h-87zM229 257h319l-63 358zM508 688q32 0 54.5 20.5t22.5 49.5q0 23 -16 38t-43 15q-31 0 -53.5 -20.5
t-22.5 -49.5q0 -24 16 -38.5t42 -14.5zM511 879l133 115l76 -35l-136 -80h-73z" />
    <glyph glyph-name="aringacute" unicode="&#x1fb;" horiz-adv-x="576" 
d="M392 831l131 126l74 -37l-137 -89h-68zM182 -11q-69 0 -116 38.5t-47 104.5q0 86 64 136.5t166 50.5q85 0 183 -28l4 14q6 21 6 46q0 104 -139 104q-73 0 -146 -27l-14 65q83 32 172 32q97 0 150 -42.5t53 -118.5q0 -31 -10 -71l-78 -293h-76l21 81q-79 -92 -193 -92z
M207 50q67 0 125.5 43t76.5 110l10 36q-86 23 -167 23q-68 0 -111 -34t-43 -87q0 -41 29.5 -66t79.5 -25zM382 593q-45 0 -74 27t-29 68q0 46 36 80t85 34q45 0 74 -27t29 -68q0 -46 -36 -80t-85 -34zM383 630q31 0 54.5 22.5t23.5 52.5q0 27 -17 43.5t-45 16.5
q-32 0 -55 -22.5t-23 -52.5q0 -26 17 -43t45 -17z" />
    <glyph glyph-name="AEacute" unicode="&#x1fc;" horiz-adv-x="1065" 
d="M706 762l135 129l78 -36l-139 -93h-74zM-40 0l599 700h560l-20 -72h-409l-64 -239h364l-19 -72h-364l-66 -245h414l-19 -72h-493l50 185h-284l-158 -185h-91zM268 256h243l100 374h-25z" />
    <glyph glyph-name="aeacute" unicode="&#x1fd;" horiz-adv-x="958" 
d="M507 595l134 145l80 -37l-142 -108h-72zM445 107q-115 -118 -263 -118q-69 0 -116 38.5t-47 104.5q0 86 64 136.5t166 50.5q85 0 183 -28l4 13q6 28 6 47q0 104 -139 104q-73 0 -146 -27l-14 65q83 32 172 32q73 0 123.5 -28.5t66.5 -79.5q89 111 215 111
q94 0 146.5 -56.5t52.5 -141.5q0 -50 -19 -101h-404q-1 -6 -1 -18q0 -71 42 -113.5t114 -42.5q83 0 160 61l40 -51q-91 -77 -202 -77q-73 0 -126 31.5t-78 87.5zM507 291h333q4 20 4 39q0 57 -33 95t-96 38q-74 0 -129.5 -48.5t-78.5 -123.5zM427 237q-86 25 -175 25
q-68 0 -111 -34t-43 -87q0 -41 29.5 -66t79.5 -25q119 0 222 109q-5 30 -5 54q0 9 3 24z" />
    <glyph glyph-name="Oslashacute" unicode="&#x1fe;" horiz-adv-x="842" 
d="M395 -13q-138 0 -224 93l-100 -85h-90l153 131q-46 72 -46 165q0 108 53 204.5t148 156.5t207 60q136 0 223 -90l96 83h90l-149 -129q47 -74 47 -167q0 -108 -53 -205t-148 -157t-207 -60zM195 177l465 396q-63 68 -169 68q-134 0 -228 -106.5t-94 -241.5q0 -64 26 -116z
M400 58q134 0 228 106.5t94 241.5q0 65 -28 119l-464 -396q63 -71 170 -71zM504 772l135 129l78 -36l-139 -93h-74z" />
    <glyph glyph-name="oslashacute" unicode="&#x1ff;" horiz-adv-x="638" 
d="M284 -12q-102 0 -169 65l-70 -58h-85l120 101q-31 54 -31 124q0 122 90.5 215t213.5 93q105 0 168 -63l71 58h85l-121 -101q33 -54 33 -125q0 -124 -91.5 -216.5t-213.5 -92.5zM141 146l325 272q-43 43 -117 43q-89 0 -156 -73.5t-67 -165.5q0 -39 15 -76zM288 55
q88 0 155.5 73t67.5 166q0 44 -15 79l-326 -274q44 -44 118 -44zM362 595l134 145l80 -37l-142 -108h-72z" />
    <glyph glyph-name="Scommaaccent" unicode="&#x218;" horiz-adv-x="637" 
d="M124 -244l1 30q65 10 78 60h-41l22 83h90l-19 -71q-14 -51 -45 -74t-86 -28zM298 -10q-190 0 -286 133l60 47q89 -109 231 -109q76 0 126.5 37t50.5 94q0 40 -31.5 68t-112.5 60q-103 41 -147.5 81.5t-44.5 105.5q0 87 72.5 145t185.5 58q157 0 248 -106l-58 -52
q-79 87 -197 87q-76 0 -122 -36.5t-46 -86.5q0 -41 34 -68t121 -61q94 -36 137.5 -78t43.5 -107q0 -92 -76 -152t-189 -60z" />
    <glyph glyph-name="scommaaccent" unicode="&#x219;" horiz-adv-x="496" 
d="M54 -243l1 30q65 10 78 60h-41l22 83h90l-19 -71q-14 -51 -45 -74t-86 -28zM217 -11q-133 0 -223 90l50 50q79 -76 180 -76q46 0 80 24t34 62q0 26 -21.5 46.5t-76.5 41.5q-76 30 -111 60.5t-35 81.5q0 68 54 113.5t142 45.5q54 0 105 -20.5t86 -50.5l-45 -53
q-74 60 -153 60q-52 0 -82 -24t-30 -58q0 -26 21.5 -45.5t81.5 -42.5q74 -30 107.5 -62t33.5 -80q0 -71 -57 -117t-141 -46z" />
    <glyph glyph-name="schwa" unicode="&#x259;" horiz-adv-x="589" 
d="M463 288q1 6 1 18q0 71 -42 113.5t-114 42.5q-84 0 -159 -61l-40 51q91 77 203 77q103 0 166 -61t63 -159q0 -123 -87.5 -221.5t-213.5 -98.5q-94 0 -147 56.5t-53 141.5q0 50 19 101h404zM452 226h-333q-4 -20 -4 -39q0 -57 33 -95t96 -38q74 0 129.5 48.5t78.5 123.5z
" />
    <glyph glyph-name="circumflex" unicode="&#x2c6;" 
d="M201 595l141 131h68l71 -131h-62l-54 67l-96 -67h-68z" />
    <glyph glyph-name="caron" unicode="&#x2c7;" 
d="M515 726l-142 -131h-68l-71 131h62l55 -67l96 67h68z" />
    <glyph glyph-name="breve" unicode="&#x2d8;" 
d="M344 593q-65 0 -97 34t-24 91h56q0 -63 73 -63q70 0 108 63h60q-20 -57 -67 -91t-109 -34z" />
    <glyph glyph-name="dotaccent" unicode="&#x2d9;" 
d="M295 594l27 98h89l-27 -98h-89z" />
    <glyph glyph-name="ring" unicode="&#x2da;" 
d="M360 593q-45 0 -74 27t-29 68q0 46 36 80t85 34q45 0 74 -27t29 -68q0 -46 -36 -80t-85 -34zM361 630q31 0 54.5 22.5t23.5 52.5q0 27 -17 43.5t-45 16.5q-32 0 -55 -22.5t-23 -52.5q0 -26 17 -43t45 -17z" />
    <glyph glyph-name="ogonek" unicode="&#x2db;" 
d="M97 -99q0 51 96 115l48 -13q-75 -54 -75 -87q0 -16 14.5 -24t49.5 -12l-11 -44q-5 -1 -14 -1q-108 6 -108 66z" />
    <glyph glyph-name="tilde" unicode="&#x2dc;" 
d="M227 586l-47 14q25 57 50 80.5t61 23.5q23 0 66.5 -20t59.5 -20q19 0 32 10.5t29 38.5l47 -13q-25 -58 -50 -81.5t-61 -23.5q-23 0 -66.5 20t-59.5 20q-19 0 -32 -10.5t-29 -38.5z" />
    <glyph glyph-name="hungarumlaut" unicode="&#x2dd;" 
d="M337 595l135 145l65 -37l-139 -108h-61zM173 595l135 145l64 -37l-137 -108h-62z" />
    <glyph glyph-name="commaaccent" unicode="&#x326;" 
d="M58 -243l1 30q65 10 78 60h-41l22 83h90l-19 -71q-14 -51 -45 -74t-86 -28z" />
    <glyph glyph-name="Wgrave" unicode="&#x1e80;" horiz-adv-x="1083" 
d="M614 891l66 -129h-55l-90 93zM206 -5l-61 705h82l44 -583l347 585h65l37 -585l356 583h89l-439 -705h-69l-40 565l-343 -565h-68z" />
    <glyph glyph-name="wgrave" unicode="&#x1e81;" horiz-adv-x="848" 
d="M137 -4l-41 521h78l27 -412l250 414h64l29 -414l249 412h80l-322 -521h-68l-30 408l-249 -408h-67zM467 595l-83 108l81 37l56 -145h-54z" />
    <glyph glyph-name="Wacute" unicode="&#x1e82;" horiz-adv-x="1083" 
d="M626 762l135 129l78 -36l-139 -93h-74zM206 -5l-61 705h82l44 -583l347 585h65l37 -585l356 583h89l-439 -705h-69l-40 565l-343 -565h-68z" />
    <glyph glyph-name="wacute" unicode="&#x1e83;" horiz-adv-x="848" 
d="M465 595l134 145l80 -37l-142 -108h-72zM137 -4l-41 521h78l27 -412l250 414h64l29 -414l249 412h80l-322 -521h-68l-30 408l-249 -408h-67z" />
    <glyph glyph-name="Wdieresis" unicode="&#x1e84;" horiz-adv-x="1083" 
d="M712 762l25 90h93l-25 -90h-93zM525 762l25 90h93l-24 -90h-94zM206 -5l-61 705h82l44 -583l347 585h65l37 -585l356 583h89l-439 -705h-69l-40 565l-343 -565h-68z" />
    <glyph glyph-name="wdieresis" unicode="&#x1e85;" horiz-adv-x="848" 
d="M548 595l26 95h89l-26 -95h-89zM371 595l26 95h90l-26 -95h-90zM137 -4l-41 521h78l27 -412l250 414h64l29 -414l249 412h80l-322 -521h-68l-30 408l-249 -408h-67z" />
    <glyph glyph-name="Ygrave" unicode="&#x1ef2;" horiz-adv-x="663" 
d="M216 0l76 282l-173 418h88l140 -353l330 353h101l-410 -431l-72 -269h-80zM399 888l66 -129h-55l-90 93z" />
    <glyph glyph-name="ygrave" unicode="&#x1ef3;" horiz-adv-x="574" 
d="M38 -163q-61 0 -113 36l42 58q33 -26 79 -26q67 0 135 96l-94 516h80l72 -431l278 431h87l-354 -534q-54 -79 -103.5 -112.5t-108.5 -33.5zM318 595l-83 108l81 37l56 -145h-54z" />
    <glyph glyph-name="enspace" unicode="&#x2002;" 
 />
    <glyph glyph-name="emspace" unicode="&#x2003;" horiz-adv-x="1000" 
 />
    <glyph glyph-name="threeperemspace" unicode="&#x2004;" horiz-adv-x="333" 
 />
    <glyph glyph-name="fourperemspace" unicode="&#x2005;" horiz-adv-x="250" 
 />
    <glyph glyph-name="thinspace" unicode="&#x2009;" horiz-adv-x="133" 
 />
    <glyph glyph-name="hairspace" unicode="&#x200a;" horiz-adv-x="75" 
 />
    <glyph glyph-name="endash" unicode="&#x2013;" horiz-adv-x="529" 
d="M66 262l20 77h399l-20 -77h-399z" />
    <glyph glyph-name="emdash" unicode="&#x2014;" horiz-adv-x="899" 
d="M66 262l20 77h769l-20 -77h-769z" />
    <glyph glyph-name="quoteleft" unicode="&#x2018;" horiz-adv-x="255" 
d="M132 478l25 91q17 63 50.5 94t94.5 42l8 -35q-82 -20 -94 -87h37l-29 -105h-92z" />
    <glyph glyph-name="quoteright" unicode="&#x2019;" horiz-adv-x="255" 
d="M124 474l-8 34q81 20 94 87h-37l29 105h92l-25 -90q-18 -65 -51 -95t-94 -41z" />
    <glyph glyph-name="quotesinglbase" unicode="&#x201a;" horiz-adv-x="255" 
d="M-37 -121l-8 34q82 21 94 87h-37l29 105h91l-24 -90q-18 -64 -51 -94.5t-94 -41.5z" />
    <glyph glyph-name="quotedblleft" unicode="&#x201c;" horiz-adv-x="455" 
d="M332 478l24 90q18 64 51 94.5t94 41.5l8 -34q-81 -21 -93 -87h36l-28 -105h-92zM132 478l24 90q18 64 51 94.5t95 41.5l7 -34q-81 -21 -93 -87h36l-28 -105h-92z" />
    <glyph glyph-name="quotedblright" unicode="&#x201d;" horiz-adv-x="455" 
d="M316 474l-7 34q80 19 93 87h-36l28 105h92l-24 -90q-18 -64 -51 -94.5t-95 -41.5zM116 474l-7 34q80 19 93 87h-36l28 105h92l-24 -90q-18 -64 -51 -94.5t-95 -41.5z" />
    <glyph glyph-name="quotedblbase" unicode="&#x201e;" horiz-adv-x="455" 
d="M164 -121l-8 34q81 21 93 87h-36l28 105h92l-24 -90q-18 -64 -51 -94.5t-94 -41.5zM-37 -121l-8 34q82 21 94 87h-37l29 105h91l-24 -90q-18 -64 -51 -94.5t-94 -41.5z" />
    <glyph glyph-name="dagger" unicode="&#x2020;" horiz-adv-x="411" 
d="M159 238l81 282l-125 -8l15 55l120 -8l30 141h61l-47 -141l125 8l-15 -55l-122 8l-68 -282h-55z" />
    <glyph glyph-name="daggerdbl" unicode="&#x2021;" horiz-adv-x="425" 
d="M99 0l46 141l-124 -8l14 55l121 -8l40 170l51 170l-125 -8l15 55l121 -8l29 141h61l-46 -141l125 8l-15 -55l-122 8l-39 -170l-52 -170l126 8l-15 -55l-120 8l-30 -141h-61z" />
    <glyph glyph-name="bullet" unicode="&#x2022;" horiz-adv-x="478" 
d="M236 216q-48 0 -78 30t-30 81q0 64 44 112.5t106 48.5q48 0 78 -30t30 -80q0 -64 -44.5 -113t-105.5 -49z" />
    <glyph glyph-name="ellipsis" unicode="&#x2026;" horiz-adv-x="734" 
d="M493 0l28 104h91l-28 -104h-91zM252 0l29 104h90l-28 -104h-91zM12 0l28 104h91l-28 -104h-91z" />
    <glyph glyph-name="perthousand" unicode="&#x2030;" horiz-adv-x="1226" 
d="M232 346q-62 0 -101.5 42t-39.5 104q0 85 55.5 150.5t135.5 65.5q63 0 102.5 -42t39.5 -104q0 -85 -56 -150.5t-136 -65.5zM64 0l679 700h79l-679 -700h-79zM992 -7q-62 0 -101.5 41.5t-39.5 104.5q0 84 56 150t136 66q62 0 101.5 -42t39.5 -104q0 -85 -56 -150.5
t-136 -65.5zM603 -7q-62 0 -101.5 41.5t-39.5 104.5q0 84 56 150t136 66q62 0 101.5 -42t39.5 -104q0 -85 -56 -150.5t-136 -65.5zM237 401q51 0 88 49t37 107q0 44 -22.5 70t-61.5 26q-51 0 -88 -49t-37 -107q0 -44 22 -70t62 -26zM997 48q51 0 88 49t37 107q0 44 -22.5 70
t-61.5 26q-51 0 -88 -49t-37 -108q0 -43 22.5 -69t61.5 -26zM608 48q51 0 88 49t37 107q0 44 -22.5 70t-61.5 26q-51 0 -88 -49t-37 -108q0 -43 22.5 -69t61.5 -26z" />
    <glyph glyph-name="guilsinglleft" unicode="&#x2039;" horiz-adv-x="328" 
d="M150 39l-105 213l2 8l222 216l50 -42l-188 -187l82 -177z" />
    <glyph glyph-name="guilsinglright" unicode="&#x203a;" horiz-adv-x="328" 
d="M58 38l-50 42l187 187l-82 177l63 31l105 -213l-2 -8z" />
    <glyph glyph-name="fraction" unicode="&#x2044;" horiz-adv-x="542" 
d="M-98 -98l697 856h79l-697 -856h-79z" />
    <glyph glyph-name="Euro" unicode="&#x20ac;" horiz-adv-x="694" 
d="M378 -12q-105 0 -174 67.5t-76 181.5h-95l17 63h79q3 57 19 108h-70l17 62h73q45 109 130.5 175.5t195.5 66.5q89 0 146 -43.5t82 -116.5l-68 -31q-26 59 -64.5 89t-104.5 30q-73 0 -133.5 -46.5t-96.5 -123.5h272l-17 -62h-279q-17 -61 -20 -108h271l-17 -63h-254
q5 -81 50 -129t119 -48q103 0 185 90l53 -46q-101 -116 -240 -116z" />
    <glyph glyph-name="published" unicode="&#x2117;" horiz-adv-x="830" 
d="M438 -12q-151 0 -256 106t-105 255t106 256t257 107t256 -106t105 -255t-106 -256t-257 -107zM438 19q140 0 235 97t95 235t-94.5 234t-233.5 96q-140 0 -235 -97t-95 -235t94.5 -234t233.5 -96zM316 172v371h146q66 0 105 -32t39 -89q0 -60 -43.5 -92.5t-108.5 -32.5
h-83v-125h-55zM371 347h85q43 0 68.5 19.5t25.5 54.5q0 72 -93 72h-86v-146z" />
    <glyph glyph-name="servicemark" unicode="&#x2120;" horiz-adv-x="707" 
d="M204 387q-83 0 -129 59l32 26q43 -48 101 -48q31 0 51 15t20 38q0 16 -13 27.5t-48 25.5q-45 18 -65 36t-20 47q0 40 33.5 66t83.5 26q71 0 111 -47l-30 -29q-36 39 -85 39q-30 0 -49 -14.5t-19 -34.5q0 -17 14.5 -28.5t51.5 -25.5q41 -16 60 -34.5t19 -47.5
q0 -42 -34.5 -69t-84.5 -27zM375 392l87 308h42l65 -169l154 169h51l-87 -308h-43l67 236l-155 -167h-5l-65 167l-67 -236h-44z" />
    <glyph glyph-name="trademark" unicode="&#x2122;" horiz-adv-x="693" 
d="M361 392l87 308h42l65 -169l154 169h51l-87 -308h-43l67 236l-155 -167h-5l-65 167l-67 -236h-44zM150 392l74 266h-98l12 42h241l-12 -42h-98l-75 -266h-44z" />
    <glyph glyph-name="minus" unicode="&#x2212;" horiz-adv-x="625" 
d="M573 315h-489l19 74h490z" />
    <glyph glyph-name="Q.alt" horiz-adv-x="842" 
d="M672 -29l-65 82q-98 -66 -212 -66q-134 0 -220.5 87t-86.5 217q0 108 53 204.5t148 156.5t207 60q134 0 220.5 -87t86.5 -216q0 -88 -37 -170t-102 -143l70 -79zM400 60q89 0 162 51l-109 128l62 47l102 -129q103 105 103 249q0 101 -63 167t-166 66q-89 0 -163.5 -50
t-115.5 -129.5t-41 -166.5q0 -101 63 -167t166 -66z" />
    <glyph glyph-name="a.alt" horiz-adv-x="659" 
d="M255 -12q-89 0 -147 61t-58 158q0 135 87 228t203 93q141 0 194 -128l31 117h77l-138 -517h-77l23 88q-88 -100 -195 -100zM277 56q87 0 158.5 75t71.5 169q0 68 -45 114t-115 46q-91 0 -153.5 -73t-62.5 -173q0 -71 40.5 -114.5t105.5 -43.5z" />
    <glyph glyph-name="aacute.alt" horiz-adv-x="659" 
d="M368 595l134 145l80 -37l-142 -108h-72zM255 -12q-89 0 -147 61t-58 158q0 135 87 228t203 93q141 0 194 -128l31 117h77l-138 -517h-77l23 88q-88 -100 -195 -100zM277 56q87 0 158.5 75t71.5 169q0 68 -45 114t-115 46q-91 0 -153.5 -73t-62.5 -173q0 -71 40.5 -114.5
t105.5 -43.5z" />
    <glyph glyph-name="abreve.alt" horiz-adv-x="659" 
d="M255 -12q-89 0 -147 61t-58 158q0 135 87 228t203 93q141 0 194 -128l31 117h77l-138 -517h-77l23 88q-88 -100 -195 -100zM277 56q87 0 158.5 75t71.5 169q0 68 -45 114t-115 46q-91 0 -153.5 -73t-62.5 -173q0 -71 40.5 -114.5t105.5 -43.5zM412 593q-65 0 -97 34
t-24 91h56q0 -63 73 -63q69 0 108 63h60q-20 -57 -67 -91t-109 -34z" />
    <glyph glyph-name="acircumflex.alt" horiz-adv-x="659" 
d="M262 595l141 131h68l71 -131h-62l-54 67l-96 -67h-68zM255 -12q-89 0 -147 61t-58 158q0 135 87 228t203 93q141 0 194 -128l31 117h77l-138 -517h-77l23 88q-88 -100 -195 -100zM277 56q87 0 158.5 75t71.5 169q0 68 -45 114t-115 46q-91 0 -153.5 -73t-62.5 -173
q0 -71 40.5 -114.5t105.5 -43.5z" />
    <glyph glyph-name="adieresis.alt" horiz-adv-x="659" 
d="M451 595l26 95h89l-26 -95h-89zM274 595l26 95h90l-26 -95h-90zM255 -12q-89 0 -147 61t-58 158q0 135 87 228t203 93q141 0 194 -128l31 117h77l-138 -517h-77l23 88q-88 -100 -195 -100zM277 56q87 0 158.5 75t71.5 169q0 68 -45 114t-115 46q-91 0 -153.5 -73
t-62.5 -173q0 -71 40.5 -114.5t105.5 -43.5z" />
    <glyph glyph-name="agrave.alt" horiz-adv-x="659" 
d="M255 -12q-89 0 -147 61t-58 158q0 135 87 228t203 93q141 0 194 -128l31 117h77l-138 -517h-77l23 88q-88 -100 -195 -100zM277 56q87 0 158.5 75t71.5 169q0 68 -45 114t-115 46q-91 0 -153.5 -73t-62.5 -173q0 -71 40.5 -114.5t105.5 -43.5zM370 595l-83 108l81 37
l56 -145h-54z" />
    <glyph glyph-name="amacron.alt" horiz-adv-x="659" 
d="M255 -12q-89 0 -147 61t-58 158q0 135 87 228t203 93q141 0 194 -128l31 117h77l-138 -517h-77l23 88q-88 -100 -195 -100zM277 56q87 0 158.5 75t71.5 169q0 68 -45 114t-115 46q-91 0 -153.5 -73t-62.5 -173q0 -71 40.5 -114.5t105.5 -43.5zM253 615l17 63h319l-17 -63
h-319z" />
    <glyph glyph-name="aogonek.alt" horiz-adv-x="659" 
d="M355 -99q0 48 72 99l23 88q-88 -100 -195 -100q-89 0 -147 61t-58 158q0 135 87 228t203 93q141 0 194 -128l31 117h77l-138 -517h-9q-71 -51 -71 -84q0 -16 14.5 -24t49.5 -12l-11 -44q-5 -1 -14 -1q-108 6 -108 66zM277 56q87 0 158.5 75t71.5 169q0 68 -45 114
t-115 46q-91 0 -153.5 -73t-62.5 -173q0 -71 40.5 -114.5t105.5 -43.5z" />
    <glyph glyph-name="aring.alt" horiz-adv-x="659" 
d="M426 593q-45 0 -74 27t-29 68q0 46 36 80t85 34q45 0 74 -27t29 -68q0 -46 -36 -80t-85 -34zM427 630q31 0 54.5 22.5t23.5 52.5q0 27 -17 43.5t-45 16.5q-32 0 -55 -22.5t-23 -52.5q0 -26 17 -43t45 -17zM255 -12q-89 0 -147 61t-58 158q0 135 87 228t203 93
q141 0 194 -128l31 117h77l-138 -517h-77l23 88q-88 -100 -195 -100zM277 56q87 0 158.5 75t71.5 169q0 68 -45 114t-115 46q-91 0 -153.5 -73t-62.5 -173q0 -71 40.5 -114.5t105.5 -43.5z" />
    <glyph glyph-name="aring.alt2" horiz-adv-x="576" 
d="M419 508q99 -39 99 -144q0 -31 -10 -71l-78 -293h-76l21 81q-79 -92 -193 -92q-69 0 -116 38.5t-47 104.5q0 86 64 136.5t166 50.5q85 0 183 -28l4 14q6 21 6 46q0 104 -139 104q-73 0 -146 -27l-14 65q62 24 131 30q-21 26 -21 60q0 45 36 79t85 34q45 0 73.5 -27
t28.5 -68q0 -59 -57 -93zM357 524q31 0 54.5 22.5t23.5 52.5q0 27 -17 43.5t-46 16.5q-31 0 -54 -22.5t-23 -52.5q0 -27 16.5 -43.5t45.5 -16.5zM207 50q67 0 125.5 43t76.5 110l10 36q-86 23 -167 23q-68 0 -111 -34t-43 -87q0 -41 29.5 -66t79.5 -25z" />
    <glyph glyph-name="aringacute.alt" horiz-adv-x="659" 
d="M436 831l131 126l74 -37l-137 -89h-68zM426 593q-45 0 -74 27t-29 68q0 46 36 80t85 34q45 0 74 -27t29 -68q0 -46 -36 -80t-85 -34zM427 630q31 0 54.5 22.5t23.5 52.5q0 27 -17 43.5t-45 16.5q-32 0 -55 -22.5t-23 -52.5q0 -26 17 -43t45 -17zM255 -12q-89 0 -147 61
t-58 158q0 135 87 228t203 93q141 0 194 -128l31 117h77l-138 -517h-77l23 88q-88 -100 -195 -100zM277 56q87 0 158.5 75t71.5 169q0 68 -45 114t-115 46q-91 0 -153.5 -73t-62.5 -173q0 -71 40.5 -114.5t105.5 -43.5z" />
    <glyph glyph-name="aringacute.alt2" horiz-adv-x="576" 
d="M368 734l132 126l74 -38l-137 -88h-69zM419 508q99 -39 99 -144q0 -31 -10 -71l-78 -293h-76l21 81q-79 -92 -193 -92q-69 0 -116 38.5t-47 104.5q0 86 64 136.5t166 50.5q85 0 183 -28l4 14q6 21 6 46q0 104 -139 104q-73 0 -146 -27l-14 65q62 24 131 30q-21 26 -21 60
q0 45 36 79t85 34q45 0 73.5 -27t28.5 -68q0 -59 -57 -93zM357 524q31 0 54.5 22.5t23.5 52.5q0 27 -17 43.5t-46 16.5q-31 0 -54 -22.5t-23 -52.5q0 -27 16.5 -43.5t45.5 -16.5zM207 50q67 0 125.5 43t76.5 110l10 36q-86 23 -167 23q-68 0 -111 -34t-43 -87
q0 -41 29.5 -66t79.5 -25z" />
    <glyph glyph-name="atilde.alt" horiz-adv-x="659" 
d="M255 -12q-89 0 -147 61t-58 158q0 135 87 228t203 93q141 0 194 -128l31 117h77l-138 -517h-77l23 88q-88 -100 -195 -100zM277 56q87 0 158.5 75t71.5 169q0 68 -45 114t-115 46q-91 0 -153.5 -73t-62.5 -173q0 -71 40.5 -114.5t105.5 -43.5zM295 586l-47 14
q25 57 50 80.5t61 23.5q23 0 66.5 -20t59.5 -20q19 0 32 10.5t29 38.5l47 -13q-25 -58 -50 -81.5t-61 -23.5q-23 0 -66.5 20t-59.5 20q-19 0 -32 -10.5t-29 -38.5z" />
    <glyph glyph-name="three.alt" horiz-adv-x="606" 
d="M259 -12q-91 0 -156 35.5t-101 92.5l63 43q68 -99 199 -99q80 0 131 40t51 97q0 61 -51.5 91.5t-136.5 30.5h-43l18 68h51q106 0 167.5 37t61.5 102q0 52 -40.5 82.5t-103.5 30.5q-96 0 -181 -70l-46 52q103 90 232 90q96 0 159 -48.5t63 -127.5q0 -73 -51.5 -120
t-144.5 -65q56 -18 92 -56.5t36 -96.5q0 -89 -77 -149t-192 -60z" />
    <glyph glyph-name="registered.alt" horiz-adv-x="830" 
d="M438 -12q-151 0 -256 105.5t-105 254.5v2q0 149 106 255.5t257 106.5t256 -105.5t105 -254.5v-2q0 -149 -106 -255.5t-257 -106.5zM438 19q140 0 235 97t95 234v2q0 137 -94.5 233t-233.5 96q-140 0 -235 -97t-95 -234v-2q0 -137 94.5 -233t233.5 -96zM297 175v371h166
q71 0 110 -39q29 -27 29 -72v-2q0 -43 -25.5 -71t-69.5 -38l114 -149h-67l-107 140h-95v-140h-55zM352 364h106q39 0 63.5 17.5t24.5 48.5v2q0 29 -22.5 46.5t-62.5 17.5h-109v-132z" />
    <glyph glyph-name="NUL" horiz-adv-x="0" 
 />
    <glyph glyph-name="hfjslug" horiz-adv-x="694" 
d="M644 -200h-208l-8 14h-163l-8 -14h-207v303q14 0 23 9.5t9 22.5t-9.5 22.5t-22.5 9.5v554h100l30 79h334l29 -79h101v-921zM400 563v-172h15v78h38v14h-38v66h43v14h-58zM184 563v-172h15v79h47v-79h15v172h-15v-79h-47v79h-15zM460 394q10 -4 21 -4q31 0 31 36v137h-16
v-137q0 -22 -16 -22q-8 0 -20 5v-15zM371 465l-13 3q-4 -18 -8 -30h-1l-16 31q23 21 23 42q0 31 -27 31q-12 0 -20 -9t-8 -22t14 -39q-23 -18 -23 -47q0 -16 8 -26.5t21 -10.5q19 0 29 24h1l12 -24l12 6l-17 32q6 14 13 39zM523 323v-46h8v12l8 8l15 -20h10l-20 26l18 20
h-10l-20 -24h-1v24h-8zM488 292l10 -15h9l-12 17q10 4 10 14q0 15 -17 15h-20v-46h8v15h12zM426 276q10 0 17 7t7 17q0 9 -7 16.5t-17 7.5t-17 -7.5t-7 -16.5q0 -10 7 -17t17 -7zM370 301l-13 22h-9l18 -29v-17h8v17l18 29h-9zM193 323v-46h34v7h-26v13h23v7h-23v12h26v7
h-34zM132 323v-46h8v32l25 -32h7v46h-8v-32l-25 32h-7zM241 323l14 -47h8l11 34h1l11 -34h8l14 47h-8l-10 -35h-1l-11 35h-7l-11 -35h-1l-10 35h-8zM327 479q-12 22 -12 32q0 19 14 19q13 0 13 -19q0 -15 -15 -32zM342 423q-8 -21 -20 -21q-16 0 -16 25q0 19 16 35zM487 299
h-11v17h11q10 0 10 -8q0 -9 -10 -9zM426 283q-16 0 -16 17q0 6 4.5 11.5t11.5 5.5t11.5 -5.5t4.5 -11.5q0 -17 -16 -17z" />
    <glyph glyph-name="i.dot" horiz-adv-x="264" 
d="M188 630l23 85h88l-23 -85h-88zM24 0l139 517h77l-139 -517h-77z" />
    <glyph glyph-name="caron.alt" 
d="M293 565l55 165h77v-3l-95 -162h-37z" />
    <glyph glyph-name="acute.cap" 
d="M308 762l135 129l78 -36l-139 -93h-74z" />
    <glyph glyph-name="hungarumlaut.cap" 
d="M217 762l135 129l77 -36l-140 -93h-72zM372 762l135 129l77 -36l-140 -93h-72z" />
    <glyph glyph-name="grave.cap" 
d="M387 891l66 -129h-55l-90 93z" />
    <glyph glyph-name="circumflex.cap" 
d="M239 762l142 118h72l78 -118h-67l-58 60l-91 -60h-76z" />
    <glyph glyph-name="caron.cap" 
d="M563 880l-141 -118h-73l-78 118h67l58 -60l91 60h76z" />
    <glyph glyph-name="breve.cap" 
d="M385 760q-63 0 -95.5 30.5t-22.5 83.5h56q3 -52 75 -52q70 0 102 52h63q-18 -53 -67 -83.5t-111 -30.5z" />
    <glyph glyph-name="tilde.cap" 
d="M270 753l-48 15q25 53 50 77t59 24q24 0 68.5 -19.5t59.5 -19.5q19 0 31.5 10.5t28.5 36.5l49 -15q-24 -53 -49.5 -76.5t-59.5 -23.5q-24 0 -68.5 19.5t-59.5 19.5q-19 0 -31.5 -10.5t-29.5 -37.5z" />
    <glyph glyph-name="macron.cap" 
d="M227 783l17 64h329l-17 -64h-329z" />
    <glyph glyph-name="dieresis.cap" 
d="M432 762l25 90h93l-25 -90h-93zM245 762l25 90h93l-24 -90h-94z" />
    <glyph glyph-name="dotaccent.cap" 
d="M337 762l25 90h96l-25 -90h-96z" />
    <glyph glyph-name="ring.cap" 
d="M354 760q-43 0 -71 24.5t-28 62.5q0 47 36.5 79t88.5 32q43 0 71 -24.5t28 -61.5q0 -47 -36.5 -79.5t-88.5 -32.5zM358 798q31 0 53.5 20.5t22.5 49.5q0 23 -15.5 38t-42.5 15q-31 0 -53.5 -20.5t-22.5 -49.5q0 -24 16 -38.5t42 -14.5z" />
    </font>
</defs>
</svg>
